От звонка до звонка / Starred Up (2013) BDRip 1080p | L1

 
Автор Сообщение

sergej644 ®

Пол:

Стаж: 4 года 11 месяцев

Сообщений: 6046

Откуда: Soviet Union



Награды: Нет

Торрент-статистика

Создавать темы 23-Янв-2015 21:07

[Цитировать]

Информация о фильме
Название: От звонка до звонка
Оригинальное название: Starred Up
Год выпуска: 2013
Жанр: драма
Режиссер: Дэвид Маккензи
В ролях: Джек О’Коннелл, Руперт Френд, Бен Мендельсон, Сэм Спруэлл, Дэвид Аджала, Шан Брекин, Питер Фердинандо, Энтони Уэльс, Дэвид Крисанту, Райан МакКенна, Марк Асанте, Эшли Чин, Шэйн МакКэффри
О фильме:
Проблемного и невероятно жестокого подростка переводят в тюрьму для взрослых, где он встречает своего отца…

Выпущено: Великобритания, Film4, Lip Sync Productions, Quickfire Films, Sigma Films
Продолжительность: 01:45:56
Перевод: любительский (одноголосый) [PashaUP]
Автор рипа: ad3wal3 (corega)
Спасибо за предоставленный материал: KinoCollection [рутрекер]; MAJESTiC [Scene]
Файл
Качество: BDRip 1080p
Видео: MPEG4 Video (H264), 1920x800, ~10 000 Kbps, 23.976fps
Аудио #1: (RUS) 48 kHz, AC3, 2ch, 192 kbps
Аудио #2: (ENG) 48 kHz, DTS, 6ch, 1509 kbps
Чаптеры (Главы): нет
Внимание ! Присутствует ненормативная лексика.--

M/I

General
Unique ID : 236898415084079392086246903752406612485 (0xB238F9A2B2CA33E2A67DA0E147803A05)
Complete name : D:Starred.Up.2013.1080p.Bluray.x264.Rus.L1.Eng.by.ad3wal3.mkv
Format : Matroska
Format version : Version 4 / Version 2
File size : 8.67 GiB
Duration : 1h 45mn
Overall bit rate : 11.7 Mbps
Encoded date : UTC 2014-08-16 07:58:21
Writing application : mkvmerge v7.0.0 ('Where We Going') 32bit built on Jun 9 2014 15:08:34
Writing library : libebml v1.3.0 + libmatroska v1.4.1
Video
ID : 1
Format : AVC
Format/Info : Advanced Video Codec
Format profile : High@L5.0
Format settings, CABAC : Yes
Format settings, ReFrames : 8 frames
Codec ID : V_MPEG4/ISO/AVC
Duration : 1h 45mn
Bit rate : 10 000 Kbps
Width : 1 920 pixels
Height : 800 pixels
Display aspect ratio : 2.40:1
Frame rate mode : Constant
Frame rate : 23.976 fps
Color space : YUV
Chroma subsampling : 4:2:0
Bit depth : 8 bits
Scan type : Progressive
Bits/(Pixel*Frame) : 0.272
Stream size : 7.24 GiB (83%)
Writing library : x264 core 130 r2273 b3065e6
Encoding settings : cabac=1 / ref=9 / deblock=1:-3:-3 / analyse=0x3:0x133 / me=umh / subme=9 / psy=1 / psy_rd=1.00:0.15 / mixed_ref=1 / me_range=24 / chroma_me=1 / trellis=2 / 8x8dct=1 / cqm=0 / deadzone=21,11 / fast_pskip=0 / chroma_qp_offset=-3 / threads=12 / lookahead_threads=2 / sliced_threads=0 / nr=0 / decimate=1 / interlaced=0 / bluray_compat=0 / constrained_intra=0 / bframes=9 / b_pyramid=1 / b_adapt=2 / b_bias=0 / direct=3 / weightb=1 / open_gop=0 / weightp=2 / keyint=240 / keyint_min=24 / scenecut=40 / intra_refresh=0 / rc_lookahead=40 / rc=2pass / mbtree=1 / bitrate=10000 / ratetol=1.0 / qcomp=0.60 / qpmin=0 / qpmax=69 / qpstep=4 / cplxblur=20.0 / qblur=0.5 / ip_ratio=1.40 / aq=1:1.00
Language : English
Default : Yes
Forced : No
Color primaries : BT.709
Transfer characteristics : BT.709
Matrix coefficients : BT.709
Audio #1
ID : 2
Format : AC-3
Format/Info : Audio Coding 3
Mode extension : CM (complete main)
Format settings, Endianness : Big
Codec ID : A_AC3
Duration : 1h 45mn
Bit rate mode : Constant
Bit rate : 192 Kbps
Channel(s) : 2 channels
Channel positions : Front: L R
Sampling rate : 48.0 KHz
Bit depth : 16 bits
Compression mode : Lossy
Stream size : 145 MiB (2%)
Title : Любительское (одноголосое) [PashaUP]
Language : Russian
Default : No
Forced : No
Audio #2
ID : 3
Format : DTS
Format/Info : Digital Theater Systems
Mode : 16
Format settings, Endianness : Big
Codec ID : A_DTS
Duration : 1h 45mn
Bit rate mode : Constant
Bit rate : 1 509 Kbps
Channel(s) : 6 channels
Channel positions : Front: L C R, Side: L R, LFE
Sampling rate : 48.0 KHz
Bit depth : 24 bits
Compression mode : Lossy
Stream size : 1.12 GiB (13%)
Title : Original
Language : English
Default : No
Forced : No
Text
ID : 4
Format : PGS
Muxing mode : zlib
Codec ID : S_HDMV/PGS
Codec ID/Info : The same subtitle format used on BDs/HD-DVDs
Default : No
Forced : No
----
[Профиль] [ЛС]
Кто просматривает тему:

Показать сообщения:    

Текущее время: Сегодня 13:48

Часовой пояс: GMT



Вы не можете начинать темы
Вы не можете отвечать на сообщения
Вы не можете редактировать свои сообщения
Вы не можете удалять свои сообщения
Вы не можете голосовать в опросах
Вы не можете прикреплять файлы к сообщениям
Вы не можете скачивать файлы