От заката до рассвета / From Dusk Till Dawn [S02] (2015) WEB-DL 1080p | NewStudio

 
Автор Сообщение

достали все ®

Пол:

Стаж: 1 год 8 месяцев

Сообщений: 6611



Награды: 12 (Подробнее)

Mega Seeder 3 (Количество: 1) Mega Seeder 1 (Количество: 1) Mega Releaser 1 (Количество: 1)
Торрент-статистика

Создавать темы 31-Окт-2015 09:18

[Цитировать]

Информация о фильме
Название: От заката до рассвета
Оригинальное название: From Dusk Till Dawn
Год выхода: 2015
Жанр: Ужасы, боевик, криминал, вампиры
Режиссер: Роберт Родригес, Джо Менендес, Эдуардо Санчес
В ролях: Д.Дж. Котрона, Зейн Холц, Роберт Патрик, Мэдисон Девенпорт, Брэндон Су Ху, Эйса Гонсалес
О фильме:
Сет Гекко, грабитель банков, и его не совсем психически стабильный братец Ричард находятся в розыске. Разыскивают их не только ФБР, но и техасские законники — шериф МакГроу и рейнджер Гонсалес, которые утраивают усилия после того, как после очередного ограбления, устроенного братьями Гекко, в банке остается несколько трупов. Пытаясь удрать в Мексику, Гекко сталкиваются с бывшим священником Джейкобом Фуллером и его семьей, которых берут в заложники и в их же трейлере отправляются к мексиканской границе. Заехав в небольшой стрип-клуб по дороге, они неудачно знакомятся с целой прорвой жаждущих крови вампиров и пытаются хотя бы дожить до рассвета, не говоря уже о том, чтобы истребить как можно больше чудовищ.

Страна: США
Студия: USA
Продолжительность: 00:45:00
Перевод: Профессиональный (многоголосый, закадровый) NewStudio
Файл
Формат: MKV
Кодек: MPEG-4 AVC
Качество: WEB-DL 1080p
Видео: 1912x1072, 23.976 fps, 4900 kbps
Звук: Аудио кодек: AC3
Аудио Rus: 48 kHz, AC3, 6 ch, 384 kbps
Аудио Eng: 48 kHz, AC3, 6 ch, 384 kbps
Релиз от:
Перевод: Наталия Черненко

Скриншоты

Список серий

01. Opening Night / Премьера
02. In the Dark Times / В темные времена
03. Attack of the 50 ft. Sex Machine / Нападение 50 и секс машина
04. The Best Little Horror House in Texas / Лучший магазин ужасов в Техасе
05. Bondage / Рабство
06. Bizarre Tales / Да будет кровь
07. Bring Me the Head of Santanico Pandemonium / Принеси голову Сантанико Пандемониум
08. The Last Temptation of Richard Gecko / Последнее искушение Ричарда Гекко
09. There Will Be Blood / Да будет кровь
10. Santa Sangre / Священная кровь

MediaInfo

General
Format : Matroska
Format version : Version 4 / Version 2
File size: 1.87 GiB
Duration : 45mn 36s
Overall bit rate : 5 859 Kbps
Encoded date : UTC 2015-08-29 06:38:17
Writing application: mkvmerge v8.2.0 ('World of Adventure') 32bit
Writing library: libebml v1.3.1 + libmatroska v1.4.2
DURATION : 00:45:36.704000000
NUMBER_OF_FRAMES : 85522
NUMBER_OF_BYTES: 131361792
_STATISTICS_WRITING_APP: mkvmerge v8.2.0 ('World of Adventure') 32bit
_STATISTICS_WRITING_DATE_UTC : 2015-08-29 06:38:17
_STATISTICS_TAGS : BPS DURATION NUMBER_OF_FRAMES NUMBER_OF_BYTES
Video
ID : 1
Format : AVC
Format/Info: Advanced Video Codec
Format profile : High@L4.0
Format settings, CABAC : Yes
Format settings, ReFrames: 4 frames
Codec ID : V_MPEG4/ISO/AVC
Duration : 45mn 36s
Bit rate : 4 974 Kbps
Width: 1 912 pixels
Height : 1 072 pixels
Display aspect ratio : 16:9
Frame rate mode: Constant
Frame rate : 23.976 fps
Color space: YUV
Chroma subsampling : 4:2:0
Bit depth: 8 bits
Scan type: Progressive
Bits/(Pixel*Frame) : 0.101
Stream size: 1.58 GiB (85%)
Language : English
Default: Yes
Forced : No
Color primaries: BT.709
Transfer characteristics : BT.709
Matrix coefficients: BT.709
Audio #1
ID : 2
Format : AC-3
Format/Info: Audio Coding 3
Mode extension : CM (complete main)
Format settings, Endianness: Big
Codec ID : A_AC3
Duration : 45mn 36s
Bit rate mode: Constant
Bit rate : 384 Kbps
Channel(s) : 6 channels
Channel positions: Front: L C R, Side: L R, LFE
Sampling rate: 48.0 KHz
Bit depth: 16 bits
Compression mode : Lossy
Stream size: 125 MiB (7%)
Title: NewStudio.TV
Language : Russian
Default: Yes
Forced : No
Audio #2
ID : 3
Format : AC-3
Format/Info: Audio Coding 3
Mode extension : CM (complete main)
Format settings, Endianness: Big
Codec ID : A_AC3
Duration : 45mn 36s
Bit rate mode: Constant
Bit rate : 384 Kbps
Channel(s) : 6 channels
Channel positions: Front: L C R, Side: L R, LFE
Sampling rate: 48.0 KHz
Bit depth: 16 bits
Compression mode : Lossy
Stream size: 125 MiB (7%)
Language : English
Default: No
Forced : No
[Профиль] [ЛС]
Кто просматривает тему:

Показать сообщения:    

Текущее время: Сегодня 14:56

Часовой пояс: GMT



Вы не можете начинать темы
Вы не можете отвечать на сообщения
Вы не можете редактировать свои сообщения
Вы не можете удалять свои сообщения
Вы не можете голосовать в опросах
Вы не можете прикреплять файлы к сообщениям
Вы не можете скачивать файлы