От заката до рассвета / From Dusk Till Dawn (1996) BDRip 1080p | P, A

 
Автор Сообщение

sergej644 ®

Пол:

Стаж: 4 года 11 месяцев

Сообщений: 6036

Откуда: Soviet Union



Награды: Нет

Торрент-статистика

Создавать темы 12-Янв-2015 14:01

[Цитировать]

Информация о фильме
Название: От заката до рассвета
Оригинальное название: From Dusk Till Dawn
Год выпуска: 1996
Страна: США
Жанр: Ужасы, боевик, триллер
Продолжительность: 01:47:59
Перевод: Профессиональный (многоголосый закадровый) x 3
Перевод: Авторский (одноголосый закадровый) x 4
Оригинальная звуковая дорожка: Английский
Субтитры: Русские (лицензия), русские (Гоблин), украинские, английские
Режиссер: Роберт Родригес
В ролях: Харви Кейтель, Джордж Клуни, Квентин Тарантино, Джульетт Льюис, Эрнест Лю, Сальма Хайек, Чич Марин, Дэнни Трехо, Том Савини, Фред Уильямсон, Майкл Паркс, Бренда Хиллхаус, Джон Сэксон, Марк Лоуренс, Келли Престон, Джон Хоукс, Тито Ларрива
Описание: Два брата, Сет (Джордж Клуни) и Ричард (Квентин Тарантино), ограбили банк, убив при этом много людей. Они спешат покинуть страну, так как их разыскивает ФБР и вся полиция Техаса. Выбраться из страны непросто, но братья берут в заложники семью пастора (Харви Кейтель), путешествующую в фургончике. Уже за границей они останавливаются на ночь в заранее условленном месте - стрип-баре, работающем от заката до рассвета. Там-то всё и начинается - бар принадлежит вампирам, которые пожирают своих посетителей. И оказавшей в западне горстке людей нужно постараться продержаться всего ничего, от заката до рассвета…

Качество: BDRip 1080p
Формат: MKV
Видео кодек: H264
Аудио кодек: AC3
Видео: MPEG4 Video (H264), 1920x1080, 23.976fps, 12.5 Mbps
Аудио #1: Русский: Dolby AC3, 48000 Hz, 6ch, 384 kbps - Многоголосый - Киномания
Аудио #2: Русский: Dolby AC3, 48000 Hz, 6ch, 384 kbps - Многоголосый - Премьер-фильм
Аудио #3: Русский: Dolby AC3, 48000 Hz, 6ch, 448 kbps - Одноголосый - Гоблин
Аудио #4: Русский: Dolby AC3, 48000 Hz, 6ch, 448 kbps - Одноголосый - Карцев
Аудио #5: Русский: Dolby AC3, 48000 Hz, 6ch, 448 kbps - Одноголосый - Гаврилов
Аудио #6: Русский: Dolby AC3, 48000 Hz, 6ch, 448 kbps - Одноголосый - Живов
Аудио #7: Украинский: Dolby AC3, 48000 Hz, 2ch, 224 kbps - Многоголосый
Аудио #8: Английский: Dolby AC3, 48000 Hz, 6ch, 448 kbps - Оригинал
Формат субтитров: Softsub (SRT)
Сэмпл

MediaInfo:

General
Unique ID : 230624831758093877865953597862257563334 (0xAD80BA18C10F0B58A5B8C2E87E7316C6)
Complete name : F:Torrent 21996.From.Dusk.Till.Dawn.likko.mkv
Format : Matroska
Format version : Version 4 / Version 2
File size : 11.9 GiB
Duration : 1h 47mn
Overall bit rate : 15.7 Mbps
Encoded date : UTC 2015-01-12 11:52:20
Writing application : mkvmerge v7.1.0 ('Good Love') 32bit built on Jul 27 2014 12:59:18
Writing library : libebml v1.3.0 + libmatroska v1.4.1
DURATION : 01:40:41.541000000
NUMBER_OF_FRAMES : 989
NUMBER_OF_BYTES : 41453
_STATISTICS_WRITING_APP : mkvmerge v7.1.0 ('Good Love') 32bit built on Jul 27 2014 12:59:18
_STATISTICS_WRITING_DATE_UTC : 2015-01-12 11:52:20
_STATISTICS_TAGS : BPS DURATION NUMBER_OF_FRAMES NUMBER_OF_BYTES
Video
ID : 1
Format : AVC
Format/Info : Advanced Video Codec
Format profile : High@L4.1
Format settings, CABAC : Yes
Format settings, ReFrames : 4 frames
Codec ID : V_MPEG4/ISO/AVC
Duration : 1h 47mn
Bit rate : 12.5 Mbps
Width : 1 920 pixels
Height : 1 080 pixels
Display aspect ratio : 16:9
Frame rate mode : Constant
Frame rate : 23.976 fps
Color space : YUV
Chroma subsampling : 4:2:0
Bit depth : 8 bits
Scan type : Progressive
Bits/(Pixel*Frame) : 0.251
Stream size : 9.19 GiB (77%)
Title : От заката до рассвета 1996 / likko for rutor
Writing library : x264 core 125 r2208 d9d2288
Encoding settings : cabac=1 / ref=5 / deblock=1:-1:-1 / analyse=0x3:0x133 / me=umh / subme=11 / psy=1 / psy_rd=1.25:0.30 / mixed_ref=1 / me_range=32 / chroma_me=1 / trellis=2 / 8x8dct=1 / cqm=0 / deadzone=21,11 / fast_pskip=0 / chroma_qp_offset=-4 / threads=12 / lookahead_threads=2 / sliced_threads=0 / nr=0 / decimate=1 / interlaced=0 / bluray_compat=0 / constrained_intra=0 / bframes=12 / b_pyramid=1 / b_adapt=2 / b_bias=0 / direct=3 / weightb=1 / open_gop=0 / weightp=2 / keyint=250 / keyint_min=23 / scenecut=40 / intra_refresh=0 / rc_lookahead=50 / rc=2pass / mbtree=1 / bitrate=12500 / ratetol=1.0 / qcomp=0.60 / qpmin=0 / qpmax=69 / qpstep=4 / cplxblur=20.0 / qblur=0.5 / ip_ratio=1.40 / aq=1:1.00
Language : English
Default : Yes
Forced : No
Audio #1
ID : 2
Format : AC-3
Format/Info : Audio Coding 3
Mode extension : CM (complete main)
Format settings, Endianness : Big
Codec ID : A_AC3
Duration : 1h 47mn
Bit rate mode : Constant
Bit rate : 384 Kbps
Channel(s) : 6 channels
Channel positions : Front: L C R, Side: L R, LFE
Sampling rate : 48.0 KHz
Bit depth : 16 bits
Compression mode : Lossy
Stream size : 297 MiB (2%)
Title : Многоголосый - Киномания
Language : Russian
Default : Yes
Forced : No
Audio #2
ID : 3
Format : AC-3
Format/Info : Audio Coding 3
Mode extension : CM (complete main)
Format settings, Endianness : Big
Codec ID : A_AC3
Duration : 1h 47mn
Bit rate mode : Constant
Bit rate : 384 Kbps
Channel(s) : 6 channels
Channel positions : Front: L C R, Side: L R, LFE
Sampling rate : 48.0 KHz
Bit depth : 16 bits
Compression mode : Lossy
Stream size : 297 MiB (2%)
Title : Многоголосый - Премьер-фильм
Language : Russian
Default : No
Forced : No
Audio #3
ID : 4
Format : AC-3
Format/Info : Audio Coding 3
Mode extension : CM (complete main)
Format settings, Endianness : Big
Codec ID : A_AC3
Duration : 1h 47mn
Bit rate mode : Constant
Bit rate : 448 Kbps
Channel(s) : 6 channels
Channel positions : Front: L C R, Side: L R, LFE
Sampling rate : 48.0 KHz
Bit depth : 16 bits
Compression mode : Lossy
Stream size : 346 MiB (3%)
Title : Одноголосый - Гоблин
Language : Russian
Default : No
Forced : No
Audio #4
ID : 5
Format : AC-3
Format/Info : Audio Coding 3
Mode extension : CM (complete main)
Format settings, Endianness : Big
Codec ID : A_AC3
Duration : 1h 47mn
Bit rate mode : Constant
Bit rate : 448 Kbps
Channel(s) : 6 channels
Channel positions : Front: L C R, Side: L R, LFE
Sampling rate : 48.0 KHz
Bit depth : 16 bits
Compression mode : Lossy
Stream size : 346 MiB (3%)
Title : Одноголосый - Карцев
Language : Russian
Default : No
Forced : No
Audio #5
ID : 6
Format : AC-3
Format/Info : Audio Coding 3
Mode extension : CM (complete main)
Format settings, Endianness : Big
Codec ID : A_AC3
Duration : 1h 47mn
Bit rate mode : Constant
Bit rate : 448 Kbps
Channel(s) : 6 channels
Channel positions : Front: L C R, Side: L R, LFE
Sampling rate : 48.0 KHz
Bit depth : 16 bits
Compression mode : Lossy
Stream size : 346 MiB (3%)
Title : Одноголосый - Гаврилов
Language : Russian
Default : No
Forced : No
Audio #6
ID : 7
Format : AC-3
Format/Info : Audio Coding 3
Mode extension : CM (complete main)
Format settings, Endianness : Big
Codec ID : A_AC3
Duration : 1h 47mn
Bit rate mode : Constant
Bit rate : 448 Kbps
Channel(s) : 6 channels
Channel positions : Front: L C R, Side: L R, LFE
Sampling rate : 48.0 KHz
Bit depth : 16 bits
Compression mode : Lossy
Stream size : 346 MiB (3%)
Title : Одноголосый - Живов
Language : Russian
Default : No
Forced : No
Audio #7
ID : 8
Format : AC-3
Format/Info : Audio Coding 3
Mode extension : CM (complete main)
Format settings, Endianness : Big
Codec ID : A_AC3
Duration : 1h 47mn
Bit rate mode : Constant
Bit rate : 224 Kbps
Channel(s) : 2 channels
Channel positions : Front: L R
Sampling rate : 48.0 KHz
Bit depth : 16 bits
Compression mode : Lossy
Stream size : 173 MiB (1%)
Title : Многоголосый
Language : Ukrainian
Default : No
Forced : No
Audio #8
ID : 9
Format : AC-3
Format/Info : Audio Coding 3
Mode extension : CM (complete main)
Format settings, Endianness : Big
Codec ID : A_AC3
Duration : 1h 47mn
Bit rate mode : Constant
Bit rate : 448 Kbps
Channel(s) : 6 channels
Channel positions : Front: L C R, Side: L R, LFE
Sampling rate : 48.0 KHz
Bit depth : 16 bits
Compression mode : Lossy
Stream size : 346 MiB (3%)
Title : Оригинал
Language : English
Default : No
Forced : No
Text #1
ID : 10
Format : UTF-8
Codec ID : S_TEXT/UTF8
Codec ID/Info : UTF-8 Plain Text
Language : Russian
Default : No
Forced : No
Text #2
ID : 11
Format : UTF-8
Codec ID : S_TEXT/UTF8
Codec ID/Info : UTF-8 Plain Text
Title : Гоблин
Language : Russian
Default : No
Forced : No
Text #3
ID : 12
Format : UTF-8
Codec ID : S_TEXT/UTF8
Codec ID/Info : UTF-8 Plain Text
Language : Ukrainian
Default : No
Forced : No
Text #4
ID : 13
Format : UTF-8
Codec ID : S_TEXT/UTF8
Codec ID/Info : UTF-8 Plain Text
Language : English
Default : No
Forced : No
Menu
00:00:00.000 : en:Chapter 01
00:09:33.781 : en:Chapter 02
00:11:24.600 : en:Chapter 03
00:17:09.111 : en:Chapter 04
00:22:13.290 : en:Chapter 05
00:25:01.291 : en:Chapter 06
00:26:17.450 : en:Chapter 07
00:31:10.785 : en:Chapter 08
00:37:00.343 : en:Chapter 09
00:41:49.131 : en:Chapter 10
00:44:19.156 : en:Chapter 11
00:50:30.902 : en:Chapter 12
01:00:49.646 : en:Chapter 13
01:09:02.054 : en:Chapter 14
01:15:28.023 : en:Chapter 15
01:24:10.128 : en:Chapter 16
01:26:58.546 : en:Chapter 17
01:29:53.554 : en:Chapter 18
01:37:47.236 : en:Chapter 19
01:41:49.812 : en:Chapter 20

Скриншоты


--
[Профиль] [ЛС]
Кто просматривает тему:

Показать сообщения:    

Текущее время: Сегодня 13:55

Часовой пояс: GMT



Вы не можете начинать темы
Вы не можете отвечать на сообщения
Вы не можете редактировать свои сообщения
Вы не можете удалять свои сообщения
Вы не можете голосовать в опросах
Вы не можете прикреплять файлы к сообщениям
Вы не можете скачивать файлы