От всего сердца / All of My Heart (Питер ДеЛуис / Peter DeLuise) [2015, США, Канада, Мелодрама, HDRip] VO (Толмачев)

 
Автор Сообщение

TorrentFilm ®

Пол:

Стаж: 2 года

Сообщений: 7741



Награды: Нет

Торрент-статистика

Создавать темы 12-Апр-2015 00:04

[Цитировать]

От всего сердца / All of My Heart
Страна: США, Канада
Жанр: Мелодрама
Год выпуска: 2015
Продолжительность: 01:23:16
Перевод: Одноголосый закадровый (Алексей Толмачев)
Cубтитры: нет
Режиссер: Питер ДеЛуис/Peter DeLuise
В ролях: Лейси Чаберт,Бреннан Эллиотт,Эдвард Эснер,Грейстон Холт,Дэниэл Кадмор,Хезер Дорксен,Барбара Поллард,Патрик Сабонгуй,Дрю Тэннер,Пол МакДжиллион
Описание: В один прекрасный день Дженни Финтли узнает, что ей в наследство достался дом. Точнее половина дома. Вторая же полагается финасисту-биржевику Брайану. Брайан предлагает продать дом, но Дженни, мечтающая стать поваром, хочет сделать из него гостиницу с завтраками. Она обещает Брайану выкупить его половину, когда дела пойдут в гору. Он принимает ее предложение и уезжает в Нью-Йорк, рассчитывая больше не возвращаться в сельский рай Дженни. Однако судьба решает иначе, и вскоре Дженни и Брайану приходится жить вместе, пытаясь помочь друг другу решить проблемы и обрести счастье…
Доп. информация: IMDb: 7.10 (154)
Сэмпл: http://sendfile.su/1105848
Качество видео: HDRip
Формат видео: AVI
Видео: Video: 720x400 (1.80:1), 23.976 fps, XviD build 50 ~2210 kbps avg, 0.32 bit/pixel
Аудио: Audio: 48 kHz, MPEG Layer 3, 2 ch, ~128.00 kbps avg

MediaInfo

Формат : AVI
Формат/Информация : Audio Video Interleave
Размер файла : 1,37 Гбайт
Продолжительность : 1 ч. 23 м.
Общий поток : 2348 Кбит/сек
Название фильма : All.of.my.heart.2015.L1.HDTVRip.1.37GB. СПАМ
Режиссёр : toxics ™ aka Photoman
Программа кодирования : VirtualDubMod 1.5.10.2 (build 2540/release)
Правообладатель : СПАМ
Примечание : 05.04.2015
Видео
Идентификатор : 0
Формат : MPEG-4 Visual
Профиль формата : Advanced Simple@L5
Параметр BVOP формата : 3
Параметр QPel формата : Нет
Параметр GMC формата : Без точки перехода
Параметр матрицы формата : Выборочная
Идентификатор кодека : XVID
Идентификатор кодека/Подсказка : XviD
Продолжительность : 1 ч. 23 м.
Битрейт : 2211 Кбит/сек
Ширина : 720 пикселей
Высота : 400 пикселей
Соотношение сторон : 16:9
Частота кадров : 23,976 кадра/сек
Цветовое пространство : YUV
Субдискретизация насыщенности : 4:2:0
Битовая глубина : 8 бит
Тип развёртки : Прогрессивная
Метод сжатия : С потерями
Бит/(Пиксели*Кадры) : 0.320
Размер потока : 1,29 Гбайт (94%)
Библиотека кодирования : XviD 1.2.1 (UTC 2008-12-04)
Аудио
Идентификатор : 1
Формат : MPEG Audio
Версия формата : Version 1
Профиль формата : Layer 3
Режим : Joint stereo
Расширение режима : MS Stereo
Идентификатор кодека : 55
Идентификатор кодека/Подсказка : MP3
Продолжительность : 1 ч. 23 м.
Вид битрейта : Постоянный
Битрейт : 128 Кбит/сек
Каналы : 2 канала
Частота : 48,0 КГц
Метод сжатия : С потерями
Размер потока : 76,2 Мбайт (5%)
Выравнивание : Соединение по промежуткам
Продолжительность промежутка : 42 мс. (1,00 видеокадр)
Время предзагрузки промежутка : 504 мс.

Скриншот c названием фильма

Скриншоты


[Профиль] [ЛС]
Кто просматривает тему:

Показать сообщения:    

Текущее время: Сегодня 13:49

Часовой пояс: GMT



Вы не можете начинать темы
Вы не можете отвечать на сообщения
Вы не можете редактировать свои сообщения
Вы не можете удалять свои сообщения
Вы не можете голосовать в опросах
Вы не можете прикреплять файлы к сообщениям
Вы не можете скачивать файлы