От винта (Ольга Лопато) [2012, мультфильм, комедия, приключения, BDRip-AVC] Original Rus

 
Автор Сообщение

Создавать темы 20-Июл-2014 03:07

От винта
Страна: Россия
Студия: Продюсерский центр «Парадиз»
Жанр: мультфильм, комедия, приключения
Год выпуска: 2012
Продолжительность: 01:26:58
Русские субтитры: нет
Режиссер: Ольга Лопато
В ролях: Антонина Березка, Алексей Франдетти, Валентин Гафт, Андрей Мерзликин, Анфиса Чехова, Александр Головин, Александр Ильин, Александр Семчев, Александр Леньков, Виктор Власов
Описание: За несколько недель до грандиозного авиашоу юный истребитель СУ-27 по имени Витязь поступает в ученики к самолетам-корифеям, которые берутся подготовить его к соревнованию. Но Витязь забывает о занятиях, когда по уши влюбляется в очаровательный легкий самолет Молнию, не подозревая, что она — помощница жестокого и злого истребителя Грома, который мечтает расправиться с Витязем. Сможет ли Витязь завоевать любовь Молнии? Успеет ли разрушить коварные планы Грома? И главное — станет ли Витязь победителем авиашоу?

Релиз: fanatus
Качество видео: BDRip (AVC)
Исходник: Blu-Ray [OT_VINTA_2D_HDCLUB]
Контейнер: MKV
Видео: MPEG-4 AVC, 1933 kbps , 1024x428, 2.40:1, 23.976 fps, 0.184 bit/pixel
Аудио: AC3, 6 ch, 48 kHz, 448 kbps
Главы: есть

MediaInfo

General
Unique ID : 228551506365273731118412007284733411233 (0xABF16B433708541FA0A1674B1F607FA1)
Complete name : E:\Ot.vinta.2012.x264.BDRip.(AVC).fanatus.mkv
Format : Matroska
Format version : Version 2
File size : 1.45 GiB
Duration : 1h 26mn
Overall bit rate : 2 383 Kbps
Movie name : Ot vinta (2012) - fanatus
Encoded date : UTC 2012-09-20 06:41:46
Writing application : mkvmerge v3.4.0 ('Rapunzel') сборка от May 15 2010 09:38:20
Writing library : libebml v0.8.0 + libmatroska v0.9.0
Video
ID : 1
Format : AVC
Format/Info : Advanced Video Codec
Format profile : High@L4.1
Format settings, CABAC : Yes
Format settings, ReFrames : 11 frames
Codec ID : V_MPEG4/ISO/AVC
Duration : 1h 26mn
Bit rate : 1 933 Kbps
Width : 1 024 pixels
Height : 428 pixels
Display aspect ratio : 2.40:1
Frame rate : 23.976 fps
Color space : YUV
Chroma subsampling : 4:2:0
Bit depth : 8 bits
Scan type : Progressive
Bits/(Pixel*Frame) : 0.184
Stream size : 1.15 GiB (79%)
Title : Ot vinta (2012)
Writing library : x264 core 125 r2208 d9d2288
Encoding settings : cabac=1 / ref=11 / deblock=1:-3:-3 / analyse=0x3:0x133 / me=tesa / subme=11 / psy=1 / psy_rd=0.95:0.00 / mixed_ref=1 / me_range=48 / chroma_me=1 / trellis=2 / 8x8dct=1 / cqm=0 / deadzone=21,11 / fast_pskip=0 / chroma_qp_offset=-2 / threads=16 / lookahead_threads=2 / sliced_threads=0 / nr=0 / decimate=0 / interlaced=0 / bluray_compat=0 / constrained_intra=0 / bframes=11 / b_pyramid=2 / b_adapt=2 / b_bias=0 / direct=3 / weightb=1 / open_gop=0 / weightp=2 / keyint=240 / keyint_min=23 / scenecut=40 / intra_refresh=0 / rc_lookahead=120 / rc=2pass / mbtree=1 / bitrate=1933 / ratetol=1.0 / qcomp=0.60 / qpmin=0 / qpmax=69 / qpstep=4 / cplxblur=20.0 / qblur=0.5 / ip_ratio=1.40 / aq=1:0.95 / zones=120857,125126,q=40
Language : Russian
Default : Yes
Forced : No
Audio
ID : 2
Format : AC-3
Format/Info : Audio Coding 3
Mode extension : CM (complete main)
Format settings, Endianness : Big
Codec ID : A_AC3
Duration : 1h 26mn
Bit rate mode : Constant
Bit rate : 448 Kbps
Channel(s) : 6 channels
Channel positions : Front: L C R, Side: L R, LFE
Sampling rate : 48.0 KHz
Bit depth : 16 bits
Compression mode : Lossy
Stream size : 279 MiB (19%)
Title : Original
Language : Russian
Default : Yes
Forced : No
Menu
00:00:00.000 : en:Chapter 01
00:06:37.730 : en:Chapter 02
00:12:55.441 : en:Chapter 03
00:24:18.331 : en:Chapter 04
00:32:47.423 : en:Chapter 05
00:37:06.140 : en:Chapter 06
00:46:49.223 : en:Chapter 07
00:54:12.832 : en:Chapter 08
01:02:36.919 : en:Chapter 09
01:10:16.170 : en:Chapter 10
01:16:15.946 : en:Chapter 11
01:23:35.593 : en:Chapter 12
01:26:58.588 : en:Chapter 13

x264 [info]

---[NoImage] raw [info]: 1024x428p 1:1 @ 24000/1001 fps (cfr)
---[NoImage] x264 [info]: using SAR=1/1
---[NoImage] x264 [info]: using cpu capabilities: MMX2 SSE2Fast FastShuffle SSEMisalign LZCNT
---[NoImage] x264 [info]: profile High, level 4.1
---[NoImage]
---[NoImage] x264 [info]: frame I:1340 Avg QP:12.01 size:123427
---[NoImage] x264 [info]: frame P:29930 Avg QP:17.43 size: 22484
---[NoImage] x264 [info]: frame B:93857 Avg QP:23.06 size: 4504
---[NoImage] x264 [info]: consecutive B-frames: 3.4% 3.9% 10.0% 28.8% 17.0% 26.1% 5.4% 2.3% 1.3% 0.7% 0.4% 0.7%
---[NoImage] x264 [info]: mb I I16..4: 9.9% 45.5% 44.6%
---[NoImage] x264 [info]: mb P I16..4: 1.4% 4.9% 1.4% P16..4: 28.1% 24.7% 13.3% 4.5% 0.8% skip:20.9%
---[NoImage] x264 [info]: mb B I16..4: 0.2% 0.5% 0.1% B16..8: 23.9% 11.9% 2.6% direct: 2.6% skip:58.1% L0:40.5% L1:42.2% BI:17.3%
---[NoImage] x264 [info]: 8x8 transform intra:58.2% inter:45.2%
---[NoImage] x264 [info]: direct mvs spatial:87.4% temporal:12.6%
---[NoImage] x264 [info]: coded y,uvDC,uvAC intra: 74.1% 78.4% 65.5% inter: 14.0% 14.2% 10.0%
---[NoImage] x264 [info]: i16 v,h,dc,p: 14% 30% 3% 54%
---[NoImage] x264 [info]: i8 v,h,dc,ddl,ddr,vr,hd,vl,hu: 9% 18% 10% 8% 10% 8% 13% 9% 16%
---[NoImage] x264 [info]: i4 v,h,dc,ddl,ddr,vr,hd,vl,hu: 12% 22% 8% 7% 10% 8% 12% 8% 13%
---[NoImage] x264 [info]: i8c dc,h,v,p: 34% 39% 13% 15%
---[NoImage] x264 [info]: Weighted P-Frames: Y:1.4% UV:0.8%
---[NoImage] x264 [info]: ref P L0: 54.3% 9.4% 13.8% 6.7% 3.9% 3.8% 2.5% 1.7% 1.2% 1.4% 1.2% 0.2% 0.0%
---[NoImage] x264 [info]: ref B L0: 77.2% 9.8% 5.6% 2.2% 1.8% 1.2% 1.1% 0.6% 0.4% 0.2%
---[NoImage] x264 [info]: ref B L1: 91.0% 9.0%
---[NoImage] x264 [info]: kb/s:1933.11
---[NoImage] encoded 125127 frames, 4.63 fps, 1933.11 kb/s

Скриншот c названием фильма

 
Кто просматривает тему:

Показать сообщения:    

Текущее время: Сегодня 00:41

Часовой пояс: GMT



Вы не можете начинать темы
Вы не можете отвечать на сообщения
Вы не можете редактировать свои сообщения
Вы не можете удалять свои сообщения
Вы не можете голосовать в опросах
Вы не можете прикреплять файлы к сообщениям
Вы не можете скачивать файлы