Отчаянный побег / Desperate Escape (Джордж Менделюк / George Mendeluk) [2009, Канада, драма, криминал, детектив, HDTVRip] MVO

 
Автор Сообщение

TorrentFilm ®

Пол:

Стаж: 2 года

Сообщений: 7741



Награды: Нет

Торрент-статистика

Создавать темы 31-Мар-2015 00:02

[Цитировать]

Отчаянный побег / Desperate Escape
Страна: Канада
Жанр: драма, криминал, детектив
Год выпуска: 2009
Продолжительность: 01:25:43
Перевод: Профессиональный (многоголосый закадровый)
Cубтитры: нет
Режиссер: Джордж Менделюк / George Mendeluk
В ролях: Элизабет Рём, Майкл Шэнкс, Майкл Райан, Серинда Свон, Донна Ямамото, Франсуаза Робертсон, Уильям МакДональд, Майкл Райан, Тамми Хуи, Майкл Йонсон
Описание: Брук Харрис приходит в себя после двухдневной комы и никак не может ничего о себе вспомнить. Она вынуждена верить Майклу, представившемуся ее женихом. Кроме Майкла, рядом с ней постоянно находится Мелисса, назвавшаяся лучшей подругой Брук.
Несмотря на заботу со стороны Майкла и Мелиссы, Брук не чувствует себя в безопасности. Ее постоянно посещают какие-то непонятные воспоминания. К тому же, ей постоянно кажется, что за ней кто-то наблюдает. С каждым днем у Брук появляется все больше вопросов и сомнений…
Доп. информация: За запись исходника спасибо Romanok8691
Сэмпл: https://yadi.sk/i/4JqiPEyIfUTon
Релиз
Качество видео: HDTVRip [Исходник 1080i]
Формат видео: AVI
Видео: 720x400 (1.80:1), 25 fps, XviD build 50 ~2081 kbps avg, 0.29 bit/pixel
Аудио: 48 kHz, AC3 Dolby Digital, 2/0 (L,R) ch, ~192 kbps

MediaInfo

Отчаянный побег - Desperate Escape [by Edich2].avi
Format : AVI
Format/Info : Audio Video Interleave
File size : 1.37 GiB
Duration : 1h 25mn
Overall bit rate : 2 283 Kbps
Movie name : Отчаянный побег - Desperate Escape [by Edich2]
Director : by Edich2
Writing application : VirtualDubMod 1.5.10.3 | www.virtualdub-fr.org || (build 2550/release)
Comment : RuTracker.org
Video
ID : 0
Format : MPEG-4 Visual
Format profile : Advanced Simple@L5
Format settings, BVOP : 1
Format settings, QPel : No
Format settings, GMC : No warppoints
Format settings, Matrix : Default (MPEG)
Codec ID : XVID
Codec ID/Hint : XviD
Duration : 1h 25mn
Bit rate : 2 082 Kbps
Width : 720 pixels
Height : 400 pixels
Display aspect ratio : 16:9
Frame rate : 25.000 fps
Color space : YUV
Chroma subsampling : 4:2:0
Bit depth : 8 bits
Scan type : Progressive
Compression mode : Lossy
Bits/(Pixel*Frame) : 0.289
Stream size : 1.25 GiB (91%)
Writing library : XviD 1.2.1 (UTC 2008-12-04)
Audio
ID : 1
Format : AC-3
Format/Info : Audio Coding 3
Mode extension : CM (complete main)
Format settings, Endianness : Big
Codec ID : 2000
Duration : 1h 25mn
Bit rate mode : Constant
Bit rate : 192 Kbps
Channel(s) : 2 channels
Channel positions : Front: L R
Sampling rate : 48.0 KHz
Bit depth : 16 bits
Compression mode : Lossy
Stream size : 118 MiB (8%)
Alignment : Split accross interleaves
Interleave, duration : 40 ms (1.00 video frame)
Interleave, preload duration : 500 ms

Скриншоты


[Профиль] [ЛС]

Создавать темы 06-Авг-2015 22:40 (спустя 4 месяца 6 дней)

Топик был перенесен из форума Фильмы до 2014 года в форум Фильмы до 2012 года
sergej644
 

Создавать темы 12-Июн-2016 08:49 (спустя 1 год 2 месяца)

Топик был перенесен из форума Фильмы 2011 года в форум Фильмы 2009 года
Russian Mafia
 
Кто просматривает тему:

Форум Тема Автор Размер
Viasat History Viasat History: BBC: Отчаянные дегустаторы отправляются / The Supersizers Go... [1 сезон 7 (7) 2 сезон 6 (7)] (Tом Ковени, Нил Фергюсон) [2008-2009 г., Реалити-шоу, SATRip] skorpionN 10.72 GB
Фильмы 2011 года Безнадега / Отчаяние / Обреченность / Desperation (Мик Гаррис / Mick Garris) [2006, США, ужасы, фэнтези, триллер, DVDRip] MVO (ТВ-3) + DVO (НТВ+) + AVO (Андрей Гаврилов) + AVO (Михаил Иванов) TorrentFilm 2.34 GB
Фильмы 2009 года Отчаянные головы / Splinterheads (Брент Серсен / Brant Sersen) [2009, США, Комедия, HDTVRip] MVO (НТВ+) TorrentFilm 1.45 GB
Зарубежные сериалы Отчаянные домохозяйки / Desperate Housewives [S01-08] (2004-2012) WEB-DLRip от Generalfilm | КПК | Невафильм Russian Mafia 34.32 GB
Отечественные мультфильмы Отчаянный кот Васька / Відчайдушний кіт Васька (Александр Викен / Олександр Вікен) [1985, Рисованный мультфильм, DVDRip]DUB + UKR painkiller 168 MB
Фильмы 2009 года Отчаянный побег / Desperate Escape (Джордж Менделюк / George Mendeluk) [2009, Канада, драма, криминал, детектив, DVDRip] MVO (Компания "Игмар") painkiller 734 MB
Фильмы 2011 года Поезд на Дарджилинг. Отчаянные путешественники / The Darjeeling Limited (Уэс Андерсон / Wes Anderson) [2007, США, комедия, драма, приключения, BDRip] AVO (Гранкин) + DVO Ukr TorrentFilm 1.46 GB
Фильмы (HD Rips | 720p, 1080p) Часы отчаяния / Desperate Hours (1990) BDRip 1080p | P, P2, A Russian Mafia 7.86 GB
Показать сообщения:    

Текущее время: Сегодня 00:34

Часовой пояс: GMT



Вы не можете начинать темы
Вы не можете отвечать на сообщения
Вы не можете редактировать свои сообщения
Вы не можете удалять свои сообщения
Вы не можете голосовать в опросах
Вы не можете прикреплять файлы к сообщениям
Вы не можете скачивать файлы