Отчаянный побег / Desperate Escape (Джордж Менделюк / George Mendeluk) [2009, Канада, драма, криминал, детектив, DVDRip] MVO (Компания "Игмар")

 
Автор Сообщение

painkiller ®

Стаж: 2 года 10 месяцев

Сообщений: 582



Награды: Нет

Торрент-статистика

Создавать темы 16-Авг-2014 01:27

[Цитировать]

Отчаянный побег / Desperate Escape
Страна: Канада
Жанр: драма, криминал, детектив
Год выпуска: 2009
Продолжительность: 90 мин
Перевод: Профессиональный (многоголосый закадровый) /Компания "Игмар"/
Cубтитры: нет
Запись звука: teftel, HPotter
Сведение: Beer kolesik Drinkers

Режиссер: Джордж Менделюк
В ролях: Элизабет Рём, Майкл Шэнкс, Майкл Райан, Серинда Свон, Донна Ямамото
Описание: Брук Харрис приходит в себя после двухдневной комы и никак не может ничего о себе вспомнить. Она вынуждена верить Майклу, представившемуся ее женихом. Кроме Майкла, рядом с ней постоянно находится Мелисса, назвавшаяся лучшей подругой Брук.
Несмотря на заботу со стороны Майкла и Мелиссы, Брук не чувствует себя в безопасности. Ее постоянно посещают какие-то непонятные воспоминания. К тому же, ей постоянно кажется, что за ней кто-то наблюдает. С каждым днем у Брук появляется все больше вопросов и сомнений…
Сэмпл: http://www.sendspace.com/file/karzsw
Качество видео: DVDRip
Формат видео: AVI
Видео: 640x272 (2.35:1), 25 fps, XviD MPEG-4, 1083 kbps avg, 0.25 bit/pixel
Аудио: 48 kHz, MPEG Layer 3, 2 ch, 192.00 kbps avg

MediaInfo

General
Complete name : D:\Ot4ayanuy,pobeg.DVDRip.2010. rus.avi
Format : AVI
Format/Info : Audio Video Interleave
File size : 734 MiB
Duration : 1h 19mn
Overall bit rate : 1 285 Kbps
Video
ID : 0
Format : MPEG-4 Visual
Format profile : Advanced Simple@L5
Format settings, BVOP : 2
Format settings, QPel : No
Format settings, GMC : No warppoints
Format settings, Matrix : Default (H.263)
Codec ID : XVID
Codec ID/Hint : XviD
Duration : 1h 19mn
Bit rate : 1 083 Kbps
Width : 640 pixels
Height : 272 pixels
Display aspect ratio : 2.35:1
Frame rate : 25.000 fps
Color space : YUV
Chroma subsampling : 4:2:0
Bit depth : 8 bits
Scan type : Progressive
Compression mode : Lossy
Bits/(Pixel*Frame) : 0.249
Stream size : 619 MiB (84%)
Writing library : XviD 1.1.2 (UTC 2006-11-01)
Audio
ID : 1
Format : MPEG Audio
Format version : Version 1
Format profile : Layer 3
Mode : Joint stereo
Codec ID : 55
Codec ID/Hint : MP3
Duration : 1h 19mn
Bit rate mode : Constant
Bit rate : 192 Kbps
Channel(s) : 2 channels
Sampling rate : 48.0 KHz
Compression mode : Lossy
Stream size : 110 MiB (15%)
Alignment : Aligned on interleaves
Interleave, duration : 40 ms (1.00 video frame)
Interleave, preload duration : 504 ms

Скриншоты

[Профиль] [ЛС]

Создавать темы 06-Авг-2015 23:09 (спустя 11 месяцев 21 день)

Топик был перенесен из форума Фильмы до 2014 года в форум Фильмы до 2012 года
sergej644
 

Создавать темы 12-Июн-2016 08:48 (спустя 1 год 9 месяцев)

Топик был перенесен из форума Фильмы 2011 года в форум Фильмы 2009 года
Russian Mafia
 
Кто просматривает тему:

Показать сообщения:    

Текущее время: Сегодня 07:21

Часовой пояс: GMT



Вы не можете начинать темы
Вы не можете отвечать на сообщения
Вы не можете редактировать свои сообщения
Вы не можете удалять свои сообщения
Вы не можете голосовать в опросах
Вы не можете прикреплять файлы к сообщениям
Вы не можете скачивать файлы