Отцовство / Vaterfreuden (2014) BDRip [1080p] [VO]

 
Автор Сообщение

sergej644 ®

Пол:

Стаж: 4 года 11 месяцев

Сообщений: 6035

Откуда: Soviet Union



Награды: Нет

Торрент-статистика

Создавать темы 11-Окт-2014 13:16

[Цитировать]

-Отцовство / Vaterfreuden (2014) BDRip- Год выпуска: 2014
Производство: Германия, Pantaleon Films, Wiedemann & Berg Filmproduktion
Жанр: Комедия
Перевод: Одноголосый закадровый, любительский |Виктор Береговых|
Субтитры: Вшитые отключаемые
Язык субтитров: Английский
Режиссер: Маттиас Швайгхефер
Продюсер: Марко Бекманн, Квирин Берг, Дан Мааг
Актеры: Маттиас Швайгхефер, Изабелл Поллак, Фридрих Мюке, Том Бек, Марк Бенжамин, Мориц Грове
Описание фильма:
Феликс — молодой человек проживающий в Мюнхене, который полностью доволен своей жизнью. В свои тридцать он не женат, не имеет детей и является полностью свободным мужчиной, который иногда встречается со знакомой девушкой, без всяких намеков на серьезные отношения. Несмотря на то, что большинство его друзей уже давно обзавелись семьями, Феликс не строит грандиозных планов на будущее и уж тем более не задумывается об отцовстве. Однажды к нему приезжает младший брат, который привозит с собой своего любимого питомца. Маленький хорек становится для Феликса настоящим кошмаром, поскольку по его вине парень лишается возможности стать отцом. Молодого человека успокаивает только то, что когда-то, из-за нехватки денег, он стал донором спермы, а значит у него сохранился шанс испытать все прелести отцовства. Но для того чтобы стать отцом, ему необходимо вернуть свое семя, а сделать это будет очень непросто...

Продолжительность: 01:50:29
Качество видео: BDRip 1080p [Profile LQ]
Видеокодек: MPEG-4 AVC/H.264
Видео: H264, 8033 Кбит/с, 1920x816, 24.000 кадр/с
Аудио #1: Русский: AC3, 2.0, 192 Кбит/с, 48kHz, 16 bit
Аудио #2: Немецкий: DTS, 5.1, 1536 Кбит/с, 48 kHz, 24 bit
Сохранены оригинальные чаптеры как на Blu-Ray

MediaInfo:

Общее
Уникальный идентификатор         : 233180750307457449139273933163388000416 (0xAF6CFA9C48513FC5B1189A783ADCD8A0)
Полное имя                       : D:\Video\Joy.of.Fatherhood.2014.BDRip.1080p.mkv
Формат                           : Matroska
Версия формата                   : Version 4 / Version 2
Размер файла                     : 7,67 Гбайт
Продолжительность                : 1 ч. 50 м.
Общий поток                      : 9933 Кбит/сек
Дата кодирования                 : UTC 2014-10-08 15:00:44
Программа кодирования            : mkvmerge v7.2.0 ('On Every Street') 64bit built on Sep 13 2014 15:52:10
Библиотека кодирования           : libebml v1.3.0 + libmatroska v1.4.1
Видео
Идентификатор                    : 1
Формат                           : AVC
Формат/Информация                : Advanced Video Codec
Профиль формата                  : [url=mailto:High@L4.1]High@L4.1[/url]
Параметр CABAC формата           : Да
Параметр ReFrames формата        : 4 кадра
Идентификатор кодека             : V_MPEG4/ISO/AVC
Продолжительность                : 1 ч. 50 м.
Битрейт                          : 8033 Кбит/сек
Ширина                           : 1920 пикселей
Высота                           : 816 пикселей
Соотношение сторон               : 2,35:1
Частота кадров                   : 24,000 кадра/сек
Цветовое пространство            : YUV
Субдискретизация насыщенности    : 4:2:0
Битовая глубина                  : 8 бит
Тип развёртки                    : Прогрессивная
Бит/(Пиксели*Кадры)              : 0.214
Размер потока                    : 6,20 Гбайт (81%)
Библиотека кодирования           : x264 core 133 r2334 a3ac64b
Настройки программы              : cabac=1 / ref=4 / deblock=1:-2:-2 / analyse=0x3:0x113 / me=umh / subme=7 / psy=1 / psy_rd=1.30:0.00 / mixed_ref=1 / me_range=16 / chroma_me=1 / trellis=2 / 8x8dct=1 / cqm=0 / deadzone=21,11 / fast_pskip=0 / chroma_qp_offset=-2 / threads=12 / lookahead_threads=2 / sliced_threads=0 / nr=0 / decimate=1 / interlaced=0 / bluray_compat=0 / constrained_intra=0 / bframes=4 / b_pyramid=2 / b_adapt=1 / b_bias=0 / direct=3 / weightb=1 / open_gop=0 / weightp=2 / keyint=250 / keyint_min=23 / scenecut=40 / intra_refresh=0 / rc_lookahead=60 / rc=crf / mbtree=1 / crf=17.0 / qcomp=0.60 / qpmin=16 / qpmax=69 / qpstep=4 / ip_ratio=1.40 / aq=1:1.00
Язык                             : English
Default                          : Да
Forced                           : Нет
Аудио #1
Идентификатор                    : 2
Формат                           : AC-3
Формат/Информация                : Audio Coding 3
Расширение режима                : CM (complete main)
Идентификатор кодека             : A_AC3
Продолжительность                : 1 ч. 50 м.
Вид битрейта                     : Постоянный
Битрейт                          : 192 Кбит/сек
Каналы                           : 2 канала
Расположение каналов             : Front: L R
Частота                          : 48,0 КГц
Битовая глубина                  : 16 бит
Метод сжатия                     : С потерями
Размер потока                    : 152 Мбайт (2%)
Заголовок                        : Виктор Береговых
Язык                             : Russian
Default                          : Да
Forced                           : Да
Аудио #2
Идентификатор                    : 3
Формат                           : DTS
Формат/Информация                : Digital Theater Systems
Идентификатор кодека             : A_DTS
Продолжительность                : 1 ч. 50 м.
Вид битрейта                     : Постоянный
Битрейт                          : 1510 Кбит/сек
Каналы                           : 6 каналов
Расположение каналов             : Front: L C R, Side: L R, LFE
Частота                          : 48,0 КГц
Битовая глубина                  : 24 бит
Метод сжатия                     : С потерями
Размер потока                    : 1,17 Гбайт (15%)
Язык                             : German
Default                          : Нет
Forced                           : Нет
Текст
Идентификатор                    : 4
Формат                           : UTF-8
Идентификатор кодека             : S_TEXT/UTF8
Идентификатор кодека/Информация  : UTF-8 Plain Text
Язык                             : English
Default                          : Нет
Forced                           : Нет
Меню
00:00:00.000                     : en:00:00:00.000
00:10:28.958                     : en:00:10:28.958
00:18:55.250                     : en:00:18:55.250
00:30:58.000                     : en:00:30:58.000
00:39:49.875                     : en:00:39:49.875
00:51:38.500                     : en:00:51:38.500
01:03:07.208                     : en:01:03:07.208
01:12:18.250                     : en:01:12:18.250
01:21:34.792                     : en:01:21:34.792
01:31:51.000                     : en:01:31:51.000
01:36:59.417                     : en:01:36:59.417
01:44:02.292                     : en:01:44:02.292

Рецензия:

Фильм, проповедующий семейные ценности
Мне посчастливилось посмотреть «Vaterfreuden» в Германии. Если честно, вообще не собиралась идти в кино, но как только взглянула на киноафишу и увидела, что в прокате фильм Маттиаса Швайгхёфера, сразу пошла за билетом. Фильм рассчитан на местную аудиторию, поэтому, не уверена, выйдет ли он в российский прокат. Но если и выйдет, то возможно через год-два, а ждать не очень хочется.
Итак, «Отцовство» — это комедия немецкого производства, режиссером которой выступил Швайгхёфер и сам же и сыграл главную роль. Надо сказать, Маттиас с регулярной частотой стал выпускать фильмы, и это уже третье кино, которое он срежиссировал. Первым фильмом была картина «What a man», но, как говорят, первый блин всегда комом. Второй фильм, Schlussmacher, получился у начинающего режиссера намного лучше.
Швайгхефер снимает комедии, которые не на что не претендуют, однако являются добрыми, хорошими фильмами, которые пропагандируют какие-либо ценности. В случае с фильмом «Отцовство» — это семейные ценности.
Главный герой, Феликс — тридцатилетний холостяк, гоняющий по Мюнхену на велосипеде, иногда видящийся со знакомой девушкой ради коротких, но продуктивных встреч. Все его друзья уже давно ведут семейную жизнь, имеют по паре-тройке детей и погрязли в быту. Жизнь Феликса вполне его устраивает, до того момента, как к нему вваливается его незадачливый младший брат со своим зверьком. И вот тут-то жизнь парня резко меняется. Зверек умудряется в буквальном смысле лишить парня возможности быть отцом. И поскольку люди начинают ценить что-то только тогда, когда они это теряют, героя Швайгхёфера внезапно осеняет, что он в будущем бы хотел завести семью детей, но больше не сможет этого сделать. Но как нельзя кстати еще до индедента со зверьком, братья успели стать донорами спермы, так что для главного героя еще не все потеряно.
Этот фильм о том, как важна человеку семья, о любви и заботе и счастье быть рядом с близкими.
Несмотря на достаточно глупый сюжет, фильм снял неплохо, а также в нем присутствует много забавных моментов. Игра актеров также понравилась, Швайгхёфер как всегда на высоте, а его друг Фридрих Мюке, снявшийся с Маттиасом уже в 3х фильмах, очень преобразился и тем самым поразил.
Если фильм будет переведен на русский язык и выйдет в российский прокат — рекомендую тем, кому нравится Швайгхёфер и фильмы с ним, а также фильмы в стиле картин Тиля Швайгера «Красавчик», «Соблазнитель». Это легкая добрая комедия с прекрасным концом. За это зеленый цвет рецензии.
Скриншоты: Время раздачи: с 10:00 до 20:00 (GMT+2) - до 10 скачавших--
[Профиль] [ЛС]
Показать сообщения:    

Текущее время: Сегодня 20:10

Часовой пояс: GMT



Вы не можете начинать темы
Вы не можете отвечать на сообщения
Вы не можете редактировать свои сообщения
Вы не можете удалять свои сообщения
Вы не можете голосовать в опросах
Вы не можете прикреплять файлы к сообщениям
Вы не можете скачивать файлы