Отходная молитва / A Prayer for the Dying (1987) BDRip 720p

 
Автор Сообщение

Russian Mafia ®

Пол:

Стаж: 1 год 8 месяцев

Сообщений: 4246



Награды: 10 (Подробнее)

Top Releaser 4 (Количество: 1) Mega Seeder 5 (Количество: 1) Top Releaser 5 (Количество: 1)
Торрент-статистика

Создавать темы 15-Сен-2015 08:16

[Цитировать]

Название: Отходная молитва
Оригинальное название: A Prayer for the Dying
Год выхода: 1987
Жанр: Боевик, триллер, драма, криминал
Режиссер: Майк Ходжес
В ролях: Микки Рурк, Боб Хоскинс, Алан Бэйтс, Сэмми Дэвис, Кристофер Фулфорд, Лиам Нисон, Леонард Термо, Камилла Кодури, Морис О’Коннелл, Элисон Дуди, Карл Джонсон, Иэн Бартоломью, Пегги Эйтчисон, Клиф Бёрнет, Энтони Хэд, Марк Лэмберт, Дэвид Ламсден, Стэнли Бирд, Джеймс Сэксон, Кен Шэррок, Джордж Шэйн, Алан Тэлбот, Йен МакЭлхинни, Марк Монеро, Дэйв Даффи, Роберт Хэмилтон, Маргарет Уэйд, Питер Нихэм, Норман Уорвик
О фильме:
На глазах ирландского террориста Мартина вместо бронетранспортера на мине подрывается школьный автобус. Потрясенный Мартин решает «выйти из игры» и бежать за границу. Он скрывается и от полиции и от своих бывших товарищей по оружию из Ирландской республиканской армии. Для того чтобы получить фальшивый заграничный паспорт, он должен совершить еще одно, последнее убийство по заказу гангстера Михана.
Свидетелем убийства становится католический священник Да Коста. Вместо того чтобы «убрать» свидетеля, Мартин идет к нему на исповедь. Теперь священник связан обетом молчания и не может выдать его полиции. Такое положение дел не устраивает Михана, и он решает навсегда «заткнуть рот» всем, кто знает о преступлении…

Страна: Великобритания, The Samuel Goldwyn Company
Продолжительность: 01:47:57
Перевод: Профессиональный многоголосый / Профессиональный двухголосый (НТВ+) / Профессиональный многоголосый (Екатеринбург Арт) / Авторский одноголосый (Владимир Завгородний, Алексей Михалёв)
Кодек: H.264
Качество: BDRip 720p
Видео: MPEG-4 AVC, 5742 Кбит/с, 1280x692, 23.976 кадр/с
Звук: Русский (AC3, 2 ch, 192 Кбит/с), английский (DTS, 2 ch, 755 Кбит/с)
Субтитры: Русские, английские

Инфо-файл

Полное имя : E:Раздачи_EA.Prayer.for.the.Dying.1987.x264.BDRip.720p.NovaLan.mkv
Формат : Matroska
Версия формата : Version 4 / Version 2
Размер файла : 5,63 Гбайт
Продолжительность : 1 ч. 47 м.
Общий поток : 7470 Кбит/сек
Название фильма : A Prayer for the Dying 1987 - NovaLan
Дата кодирования : UTC 2013-12-30 18:35:27
Программа кодирования : mkvmerge v6.6.0 ('The Edge Of The In Between') built on Dec 1 2013 17:55:00
Библиотека кодирования : libebml v1.3.0 + libmatroska v1.4.1
Видео
Идентификатор : 1
Формат : AVC
Формат/Информация : Advanced Video Codec
Профиль формата : High@L4.1
Параметр CABAC формата : Да
Параметр ReFrames формата : 8 кадров
Идентификатор кодека : V_MPEG4/ISO/AVC
Продолжительность : 1 ч. 47 м.
Битрейт : 5742 Кбит/сек
Ширина : 1280 пикселей
Высота : 692 пикселя
Соотношение сторон : 1,85:1
Частота кадров : 23,976 кадра/сек
Цветовое пространство : YUV
Субдискретизация насыщенности : 4:2:0
Битовая глубина : 8 бит
Тип развёртки : Прогрессивная
Бит/(Пиксели*Кадры) : 0.270
Размер потока : 4,23 Гбайт (75%)
Заголовок : Sergei7721
Библиотека кодирования : x264 core 133 r2334 a3ac64b
Настройки программы : cabac=1 / ref=8 / deblock=1:-1:-1 / analyse=0x3:0x113 / me=umh / subme=10 / psy=1 / psy_rd=1.00:0.20 / mixed_ref=1 / me_range=32 / chroma_me=1 / trellis=2 / 8x8dct=1 / cqm=0 / deadzone=21,11 / fast_pskip=0 / chroma_qp_offset=-3 / threads=12 / lookahead_threads=1 / sliced_threads=0 / nr=0 / decimate=0 / interlaced=0 / bluray_compat=0 / constrained_intra=0 / bframes=6 / b_pyramid=2 / b_adapt=2 / b_bias=0 / direct=3 / weightb=1 / open_gop=0 / weightp=2 / keyint=240 / keyint_min=23 / scenecut=40 / intra_refresh=0 / rc_lookahead=40 / rc=2pass / mbtree=0 / bitrate=5742 / ratetol=1.0 / qcomp=0.60 / qpmin=0 / qpmax=69 / qpstep=4 / cplxblur=20.0 / qblur=0.5 / vbv_maxrate=50000 / vbv_bufsize=62500 / nal_hrd=none / ip_ratio=1.40 / pb_ratio=1.30 / aq=1:1.00
Язык : English
Default : Да
Forced : Нет
Аудио #1
Идентификатор : 2
Формат : AC-3
Формат/Информация : Audio Coding 3
Расширение режима : CM (complete main)
Параметр Endianness формата : Big
Идентификатор кодека : A_AC3
Продолжительность : 1 ч. 47 м.
Вид битрейта : Постоянный
Битрейт : 192 Кбит/сек
Каналы : 2 канала
Расположение каналов : Front: L R
Частота : 48,0 КГц
Битовая глубина : 16 бит
Метод сжатия : С потерями
Размер потока : 148 Мбайт (3%)
Язык : Russian
Default : Да
Forced : Нет
Аудио #2
Идентификатор : 3
Формат : AC-3
Формат/Информация : Audio Coding 3
Расширение режима : CM (complete main)
Параметр Endianness формата : Big
Идентификатор кодека : A_AC3
Продолжительность : 1 ч. 47 м.
Вид битрейта : Постоянный
Битрейт : 192 Кбит/сек
Каналы : 2 канала
Расположение каналов : Front: L R
Частота : 48,0 КГц
Битовая глубина : 16 бит
Метод сжатия : С потерями
Размер потока : 148 Мбайт (3%)
Язык : Russian
Default : Нет
Forced : Нет
Аудио #3
Идентификатор : 4
Формат : AC-3
Формат/Информация : Audio Coding 3
Расширение режима : CM (complete main)
Параметр Endianness формата : Big
Идентификатор кодека : A_AC3
Продолжительность : 1 ч. 47 м.
Вид битрейта : Постоянный
Битрейт : 192 Кбит/сек
Каналы : 2 канала
Расположение каналов : Front: L R
Частота : 48,0 КГц
Битовая глубина : 16 бит
Метод сжатия : С потерями
Размер потока : 148 Мбайт (3%)
Язык : Russian
Default : Нет
Forced : Нет
Аудио #4
Идентификатор : 5
Формат : AC-3
Формат/Информация : Audio Coding 3
Расширение режима : CM (complete main)
Параметр Endianness формата : Big
Идентификатор кодека : A_AC3
Продолжительность : 1 ч. 47 м.
Вид битрейта : Постоянный
Битрейт : 192 Кбит/сек
Каналы : 2 канала
Расположение каналов : Front: L R
Частота : 48,0 КГц
Битовая глубина : 16 бит
Метод сжатия : С потерями
Размер потока : 148 Мбайт (3%)
Язык : Russian
Default : Нет
Forced : Нет
Аудио #5
Идентификатор : 6
Формат : AC-3
Формат/Информация : Audio Coding 3
Расширение режима : CM (complete main)
Параметр Endianness формата : Big
Идентификатор кодека : A_AC3
Продолжительность : 1 ч. 47 м.
Вид битрейта : Постоянный
Битрейт : 192 Кбит/сек
Каналы : 2 канала
Расположение каналов : Front: L R
Частота : 48,0 КГц
Битовая глубина : 16 бит
Метод сжатия : С потерями
Размер потока : 148 Мбайт (3%)
Язык : Russian
Default : Нет
Forced : Нет
Аудио #6
Идентификатор : 7
Формат : DTS
Формат/Информация : Digital Theater Systems
Идентификатор кодека : A_DTS
Продолжительность : 1 ч. 47 м.
Вид битрейта : Постоянный
Битрейт : 755 Кбит/сек
Каналы : 2 канала
Расположение каналов : Front: L R
Частота : 48,0 КГц
Битовая глубина : 16 бит
Метод сжатия : С потерями
Размер потока : 583 Мбайт (10%)
Язык : English
Default : Нет
Forced : Нет
Текст #1
Идентификатор : 8
Формат : UTF-8
Идентификатор кодека : S_TEXT/UTF8
Идентификатор кодека/Информация : UTF-8 Plain Text
Язык : Russian
Default : Нет
Forced : Нет
Текст #2
Идентификатор : 9
Формат : UTF-8
Идентификатор кодека : S_TEXT/UTF8
Идентификатор кодека/Информация : UTF-8 Plain Text
Язык : English
Default : Нет
Forced : Нет
Меню
00:00:00.000 : en:00:00:00.000
00:09:23.729 : en:00:09:23.729
00:17:16.535 : en:00:17:16.535
00:27:18.970 : en:00:27:18.970
00:36:30.354 : en:00:36:30.354
00:44:55.317 : en:00:44:55.317
00:53:57.442 : en:00:53:57.442
01:03:06.741 : en:01:03:06.741
01:12:35.934 : en:01:12:35.934
01:21:08.863 : en:01:21:08.863
01:30:17.453 : en:01:30:17.453
01:41:00.888 : en:01:41:00.888
01:44:37.517 : en:01:44:37.517

[Профиль] [ЛС]
Показать сообщения:    

Текущее время: Сегодня 09:50

Часовой пояс: GMT



Вы не можете начинать темы
Вы не можете отвечать на сообщения
Вы не можете редактировать свои сообщения
Вы не можете удалять свои сообщения
Вы не можете голосовать в опросах
Вы не можете прикреплять файлы к сообщениям
Вы не можете скачивать файлы