Отряд самоубийц / Suicide Squad (2016) WEBRip 1080p | Трейлер

 
Автор Сообщение

BOSS ®

Пол:

Стаж: 2 года 2 месяца

Сообщений: 3751

Откуда: ODESSA



Награды: 20 (Подробнее)

Mega Releaser 2 (Количество: 1) Top Keeper 1 (Количество: 1) Top Seeder 4 (Количество: 1)
Торрент-статистика

Создавать темы 16-Июл-2015 20:48

[Цитировать]

Год выпуска: 2015
Производство: США, Канада
Жанр: боевик
Перевод: дублированный
Режиссер: Дэвид Эйр
Продюсеры: Чарльз Ровен, Ричард Сакл, Брюс Франклин
Актеры: Марго Робби, Джай Кортни, Скотт Иствуд, Кара Делевинь, Бен Аффлек, Уилл Смит, Джаред Лето, Юэль Киннаман, Адевале Акинойе-Агбаже, Виола Дэвис
Описание фильма:
Правительство решает дать команде суперзлодеев шанс на искупление. Подвох в том, что их отправляют на миссию, где они, вероятнее всего, погибнут.
Дата мировой премьеры: 4 августа 2016
Дата российской премьеры: 5 августа 2016

Продолжительность: 00:03:07
Качество видео: WEBRip 1080p
Видеокодек: MPEG-4 AVC/H.264
Битрейт видео: 1943 Кбит/сек
Размер кадра: 1920x1080
Аудиокодек: AAC
Битрейт аудио: 126 Кбит/сек

MediaInfo:

Общее
Полное имя : Suicide-Squad.mp4
Формат : MPEG-4
Профиль формата : Base Media
Идентификатор кодека : isom
Размер файла : 46,1 Мбайт
Продолжительность : 3 м. 7 с.
Режим общего битрейта : Переменный
Общий поток : 2062 Кбит/сек
Дата кодирования : UTC 2015-07-15 08:53:58
Дата пометки : UTC 2015-07-15 08:53:58
Программа кодирования : Lavf53.21.1
Видео
Идентификатор : 1
Формат : AVC
Формат/Информация : Advanced Video Codec
Профиль формата : Main@L4
Параметр CABAC формата : Да
Параметр ReFrames формата : 3 кадра
Идентификатор кодека : avc1
Идентификатор кодека/Информация : Advanced Video Coding
Продолжительность : 3 м. 6 с.
Битрейт : 1943 Кбит/сек
Ширина : 1920 пикселей
Высота : 1080 пикселей
Соотношение сторон : 16:9
Режим частоты кадров : Постоянный
Частота кадров : 23,976 кадра/сек
Цветовое пространство : YUV
Субдискретизация насыщенности : 4:2:0
Битовая глубина : 8 бит
Тип развёртки : Прогрессивная
Бит/(Пиксели*Кадры) : 0.039
Размер потока : 43,2 Мбайт (94%)
Библиотека кодирования : x264 core 120 r2151 a3f4407
Дата кодирования : UTC 2015-07-15 08:53:58
Дата пометки : UTC 2015-07-15 08:53:58
Аудио
Идентификатор : 2
Формат : AAC
Формат/Информация : Advanced Audio Codec
Профиль формата : LC
Идентификатор кодека : 40
Продолжительность : 3 м. 7 с.
Вид битрейта : Переменный
Битрейт : 126 Кбит/сек
Каналы : 2 канала
Расположение каналов : Front: L R
Частота : 44,1 КГц
Метод сжатия : С потерями
Размер потока : 2,81 Мбайт (6%)
Дата кодирования : UTC 2015-07-15 08:53:58
Дата пометки : UTC 2015-07-15 08:53:58
Скриншоты - -

Скриншоты

[Профиль] [ЛС]
Показать сообщения:    

Текущее время: Сегодня 02:31

Часовой пояс: GMT



Вы не можете начинать темы
Вы не можете отвечать на сообщения
Вы не можете редактировать свои сообщения
Вы не можете удалять свои сообщения
Вы не можете голосовать в опросах
Вы не можете прикреплять файлы к сообщениям
Вы не можете скачивать файлы