Отрыв [01-08 из 08] (2012) WEB-DLRip от Generalfilm | КПК

 
Автор Сообщение

Белочка ®

Пол:

Стаж: 5 лет 1 месяц

Сообщений: 2089



Награды: 1 (Подробнее)

Girls (Количество: 1)
Торрент-статистика

Создавать темы 09-Дек-2014 15:03

[Цитировать]

Информация о фильме
Название: Отрыв
Год выхода: 2012
Жанр: Военный, драма
Режиссер: Сергей Попов
В ролях: Игорь Петренко, Катерина Васильева (V), Андрей Смоляков, Андрей Панин, Кристина Кузьмина, Елена Лядова, Николай Добрынин, Игорь Скляр, Владимир Колганов, Андрей Зибров, Кирилл Полухин, Дмитрий Поднозов, Руслан Лукьянов, Александр Стекольников, Егор Бакулин, Андрей Шипицын, Владимир Галась, Денис Кириллов, Александр Русинов
О фильме:
В 1947 году Алексей Митрохин приезжает в послевоенную Москву навестить своего друга, бывшего комбата Аргунова, который во время войны спас его жизнь. Но оказывается, что комбат осужден на 25 лет и пребывает в лагере строго режима. Герой решается на отчаянный поступок — любой ценой вызволить друга…Митрохин имитирует покушение на вождя народов товарища Сталина и получает приговор — четверть века в лагере самой высокой режимной категории — карельском «Лазо». В бараке он встречает, наконец, своего друга и произносит одну единственную фразу: «А я за тобой, комбат».Бежать из «Лазо» еще никому не удавалось. С северной стороны лагеря — озеро, с юга — обнесенный колючей проволокой участок суши. С первого взгляда, затея совершить побег кажется безумной, но выясняется, что до войны Алексей учился в гидротехническом институте и проходил практику именно в том месте, где сейчас расположен концлагерь. В голове героя мгновенно вырабатывается совершенно невероятный план: использовать для побега плавающие торфяные острова…

Страна: Россия
Студия: Всемирные Русские Студии, Первый канал
Продолжительность: 8 х ~ 00:48:00
Перевод: Не требуется
Файл
Качество: WEB-DLRip | КПК
Видео: MPEG-4 AVC (x264), 640x360, ~500 kbps, 25.000 fps
Аудио: AAC LC, 44.1 KHz, 2 ch, 128 Kbps
Субтитры: Нет
Семпл

Скриншоты

MI

Complete name : E:KinoOtryv.S01.2011.AVC.WEB-DLRip.KPK.GeneralfilmOtryv.(6.seriya.iz.8).2011.AVC.WEB-DLRip.KPK.Generalfilm.mp4
Format : MPEG-4
Format profile : Base Media
Codec ID : isom
File size : 219 MiB
Duration : 48mn 34s
Overall bit rate mode : Variable
Overall bit rate : 631 Kbps
Encoded date : UTC 2014-12-02 18:00:20
Tagged date : UTC 2014-12-02 18:00:20
Video
ID : 1
Format : AVC
Format/Info : Advanced Video Codec
Format profile : High@L4.1
Format settings, CABAC : Yes
Format settings, ReFrames : 8 frames
Codec ID : avc1
Codec ID/Info : Advanced Video Coding
Duration : 48mn 33s
Bit rate : 500 Kbps
Maximum bit rate : 3 503 Kbps
Width : 640 pixels
Height : 360 pixels
Display aspect ratio : 16:9
Frame rate mode : Constant
Frame rate : 25.000 fps
Color space : YUV
Chroma subsampling : 4:2:0
Bit depth : 8 bits
Scan type : Progressive
Bits/(Pixel*Frame) : 0.087
Stream size : 173 MiB (79%)
Writing library : x264 core 130 r2273 b3065e6
Encoding settings : cabac=1 / ref=8 / deblock=1:-2:-2 / analyse=0x3:0x133 / me=umh / subme=10 / psy=1 / psy_rd=1.00:0.00 / mixed_ref=1 / me_range=24 / chroma_me=1 / trellis=2 / 8x8dct=1 / cqm=0 / deadzone=21,11 / fast_pskip=1 / chroma_qp_offset=-2 / threads=12 / lookahead_threads=2 / sliced_threads=0 / nr=0 / decimate=0 / interlaced=0 / bluray_compat=0 / constrained_intra=0 / bframes=8 / b_pyramid=2 / b_adapt=2 / b_bias=0 / direct=3 / weightb=1 / open_gop=0 / weightp=2 / keyint=250 / keyint_min=126 / scenecut=40 / intra_refresh=0 / rc_lookahead=40 / rc=2pass / mbtree=1 / bitrate=500 / ratetol=1.0 / qcomp=0.60 / qpmin=0 / qpmax=69 / qpstep=4 / cplxblur=20.0 / qblur=0.5 / ip_ratio=1.40 / aq=1:1.00
Encoded date : UTC 2014-12-02 18:00:20
Tagged date : UTC 2014-12-02 18:00:24
Audio
ID : 2
Format : AAC
Format/Info : Advanced Audio Codec
Format profile : LC
Codec ID : 40
Duration : 48mn 34s
Bit rate mode : Variable
Bit rate : 128 Kbps
Maximum bit rate : 149 Kbps
Channel count : 2 channels
Channel positions : Front: L R
Sampling rate : 44.1 KHz
Compression mode : Lossy
Delay relative to video : 120ms
Stream size : 44.4 MiB (20%)
Encoded date : UTC 2014-12-02 18:00:24
Tagged date : UTC 2014-12-02 18:00:24
Релиз от:
[Профиль] [ЛС]
Показать сообщения:    

Текущее время: Сегодня 16:33

Часовой пояс: GMT



Вы не можете начинать темы
Вы не можете отвечать на сообщения
Вы не можете редактировать свои сообщения
Вы не можете удалять свои сообщения
Вы не можете голосовать в опросах
Вы не можете прикреплять файлы к сообщениям
Вы не можете скачивать файлы