Отрыв [01-08 из 08] (2012) WEB-DLRip от Generalfilm

 
Автор Сообщение

Белочка ®

Пол:

Стаж: 5 лет 1 месяц

Сообщений: 2089



Награды: 1 (Подробнее)

Girls (Количество: 1)
Торрент-статистика

Создавать темы 09-Дек-2014 15:02

[Цитировать]

Информация о фильме
Название: Отрыв
Год выхода: 2012
Жанр: Военный, драма
Режиссер: Сергей Попов
В ролях: Игорь Петренко, Катерина Васильева (V), Андрей Смоляков, Андрей Панин, Кристина Кузьмина, Елена Лядова, Николай Добрынин, Игорь Скляр, Владимир Колганов, Андрей Зибров, Кирилл Полухин, Дмитрий Поднозов, Руслан Лукьянов, Александр Стекольников, Егор Бакулин, Андрей Шипицын, Владимир Галась, Денис Кириллов, Александр Русинов
О фильме:
В 1947 году Алексей Митрохин приезжает в послевоенную Москву навестить своего друга, бывшего комбата Аргунова, который во время войны спас его жизнь. Но оказывается, что комбат осужден на 25 лет и пребывает в лагере строго режима. Герой решается на отчаянный поступок — любой ценой вызволить друга…Митрохин имитирует покушение на вождя народов товарища Сталина и получает приговор — четверть века в лагере самой высокой режимной категории — карельском «Лазо». В бараке он встречает, наконец, своего друга и произносит одну единственную фразу: «А я за тобой, комбат».Бежать из «Лазо» еще никому не удавалось. С северной стороны лагеря — озеро, с юга — обнесенный колючей проволокой участок суши. С первого взгляда, затея совершить побег кажется безумной, но выясняется, что до войны Алексей учился в гидротехническом институте и проходил практику именно в том месте, где сейчас расположен концлагерь. В голове героя мгновенно вырабатывается совершенно невероятный план: использовать для побега плавающие торфяные острова…

Страна: Россия
Студия: Всемирные Русские Студии, Первый канал
Продолжительность: 8 х ~ 00:48:00
Перевод: Не требуется
Файл
Формат: AVI
Качество: WEB-DLRip
Видео: XviD, 720x400, ~1800 kbps, 25.000 fps
Аудио: AC3, 44.1 KHz, 2 ch, 192 Kbps
Субтитры: Нет
Семпл

Скриншоты

MI

Complete name : E:KinoOtryv.S01.2011.XviD.WEB-DLRip.GeneralfilmOtryv.(5.seriya.iz.8).2011.XviD.WEB-DLRip.Generalfilm.avi
Format : AVI
Format/Info : Audio Video Interleave
File size : 690 MiB
Duration : 48mn 10s
Overall bit rate : 2 003 Kbps
Writing application : VirtualDubMod 1.5.10.3 | www.virtualdub-fr.org || (build 2550/release)
Writing library : VirtualDubMod build 2550/release
Video
ID : 0
Format : MPEG-4 Visual
Format profile : Advanced Simple@L5
Format settings, BVOP : 2
Format settings, QPel : No
Format settings, GMC : No warppoints
Format settings, Matrix : Default (H.263)
Codec ID : XVID
Codec ID/Hint : XviD
Duration : 48mn 10s
Bit rate : 1 802 Kbps
Width : 720 pixels
Height : 400 pixels
Display aspect ratio : 16:9
Frame rate : 25.000 fps
Color space : YUV
Chroma subsampling : 4:2:0
Bit depth : 8 bits
Scan type : Progressive
Compression mode : Lossy
Bits/(Pixel*Frame) : 0.250
Stream size : 621 MiB (90%)
Writing library : XviD 1.2.1 (UTC 2008-12-04)
Audio
ID : 1
Format : AC-3
Format/Info : Audio Coding 3
Mode extension : CM (complete main)
Format settings, Endianness : Big
Codec ID : 2000
Duration : 48mn 10s
Bit rate mode : Constant
Bit rate : 192 Kbps
Channel count : 2 channels
Channel positions : Front: L R
Sampling rate : 44.1 KHz
Bit depth : 16 bits
Compression mode : Lossy
Stream size : 66.2 MiB (10%)
Alignment : Split accross interleaves
Interleave, duration : 40 ms (1.00 video frame)
Interleave, preload duration : 500 ms
Релиз от:
[Профиль] [ЛС]
Показать сообщения:    

Текущее время: Сегодня 18:38

Часовой пояс: GMT



Вы не можете начинать темы
Вы не можете отвечать на сообщения
Вы не можете редактировать свои сообщения
Вы не можете удалять свои сообщения
Вы не можете голосовать в опросах
Вы не можете прикреплять файлы к сообщениям
Вы не можете скачивать файлы