Отрочество / Boyhood (2014) BDRip 720p от Сinemania | L1

 
Автор Сообщение

sergej644 ®

Пол:

Стаж: 4 года 11 месяцев

Сообщений: 6040

Откуда: Soviet Union



Награды: Нет

Торрент-статистика

Создавать темы 11-Фев-2015 12:36

[Цитировать]

Информация о фильме
Название: Отрочество
Оригинальное название: Boyhood
Год выхода: 2014
Жанр: Драма
Режиссер: Ричард Линклейтер
В ролях: Эллар Колтрейн, Патриция Аркетт, Итэн Хоук, Элайджа Смит, Лорелей Линклэйтер, Стивен Честер Принц, Бонни Кросс, Либби Виллари, Марко Перелья, Джэми Ховард
О фильме:
Многолетний проект позволит проследить развитие реального человека с момента рождения. Уникальный шанс увидеть год за годом взросление ребенка, жизнь его родителей и изменения окружающего мира в целом.

Официальный сайт
Выпущено: США / Detour Filmproduction, IFC Productions
Продолжительность: 02:45:38
Перевод: Любительское (одноголосое) [Lord32x]
Файл
Формат: MKV
Качество: BDRip 720p
Видео: MPEG-4 AVC, 3933 Кбит/с, 1280x688
Аудио: Русский (AC3, 2 ch, 224 Кбит/с), английский (DTS, 6 ch, 1510 Кбит/с)
Субтитры: Русские, английские
Семпл

Media Info:


Общее
Уникальный идентификатор : 187852633089053305649962461784718574232 (0x8D5319E2FD0E44CDB58008A5AA2E0298)
Полное имя : F:Раздача HDBoyhood.2014.Blu.Ray.720p.CINEMANIA.mkv
Формат : Matroska
Версия формата : Version 4 / Version 2
Размер файла : 6,69 Гбайт
Продолжительность : 2 ч. 45 м.
Общий поток : 5781 Кбит/сек
Название фильма : Release Group CINEMANIA
Дата кодирования : UTC 2014-10-30 09:05:25
Программа кодирования : mkvmerge v7.3.0 ('Nouages') 64bit built on Oct 22 2014 18:53:34
Библиотека кодирования : libebml v1.3.0 + libmatroska v1.4.1
Видео
Идентификатор : 1
Формат : AVC
Формат/Информация : Advanced Video Codec
Профиль формата : High@L4.1
Параметр CABAC формата : Да
Параметр ReFrames формата : 5 кадров
Идентификатор кодека : V_MPEG4/ISO/AVC
Продолжительность : 2 ч. 45 м.
Битрейт : 3933 Кбит/сек
Ширина : 1280 пикселей
Высота : 688 пикселей
Соотношение сторон : 1,85:1
Режим частоты кадров : Постоянный
Частота кадров : 23,976 кадра/сек
Цветовое пространство : YUV
Субдискретизация насыщенности : 4:2:0
Битовая глубина : 8 бит
Тип развёртки : Прогрессивная
Бит/(Пиксели*Кадры) : 0.186
Размер потока : 4,55 Гбайт (68%)
Заголовок : Release Group CINEMANIA
Библиотека кодирования : x264 core 142 r2479 dd79a61
Настройки программы : cabac=1 / ref=5 / deblock=1:-1:-1 / analyse=0x3:0x133 / me=umh / subme=7 / psy=1 / psy_rd=1.00:0.15 / mixed_ref=1 / me_range=16 / chroma_me=1 / trellis=1 / 8x8dct=1 / cqm=0 / deadzone=21,11 / fast_pskip=0 / chroma_qp_offset=-3 / threads=12 / lookahead_threads=2 / sliced_threads=0 / nr=0 / decimate=1 / interlaced=0 / bluray_compat=0 / constrained_intra=0 / bframes=3 / b_pyramid=2 / b_adapt=1 / b_bias=0 / direct=3 / weightb=1 / open_gop=0 / weightp=2 / keyint=240 / keyint_min=23 / scenecut=40 / intra_refresh=0 / rc_lookahead=40 / rc=crf / mbtree=1 / crf=20.0 / qcomp=0.60 / qpmin=10 / qpmax=69 / qpstep=4 / ip_ratio=1.40 / aq=1:1.00
Язык : English
Default : Да
Forced : Нет
Аудио #1
Идентификатор : 2
Формат : AC-3
Формат/Информация : Audio Coding 3
Расширение режима : CM (complete main)
Параметр Endianness формата : Big
Идентификатор кодека : A_AC3
Продолжительность : 2 ч. 45 м.
Вид битрейта : Постоянный
Битрейт : 224 Кбит/сек
Каналы : 2 канала
Расположение каналов : Front: L R
Частота : 48,0 КГц
Битовая глубина : 16 бит
Метод сжатия : С потерями
Размер потока : 265 Мбайт (4%)
Заголовок : Lord32x
Язык : Russian
Default : Да
Forced : Да
Аудио #2
Идентификатор : 3
Формат : DTS
Формат/Информация : Digital Theater Systems
Режим : 16
Параметр Endianness формата : Big
Идентификатор кодека : A_DTS
Продолжительность : 2 ч. 45 м.
Вид битрейта : Постоянный
Битрейт : 1509 Кбит/сек
Каналы : 6 каналов
Расположение каналов : Front: L C R, Side: L R, LFE
Частота : 48,0 КГц
Битовая глубина : 24 бит
Метод сжатия : С потерями
Размер потока : 1,75 Гбайт (26%)
Язык : English
Default : Нет
Forced : Нет
Текст #1
Идентификатор : 4
Формат : UTF-8
Идентификатор кодека : S_TEXT/UTF8
Идентификатор кодека/Информация : UTF-8 Plain Text
Язык : Russian
Default : Да
Forced : Да
Текст #2
Идентификатор : 5
Формат : UTF-8
Идентификатор кодека : S_TEXT/UTF8
Идентификатор кодека/Информация : UTF-8 Plain Text
Заголовок : notabenoid
Язык : Russian
Default : Нет
Forced : Да
Текст #3
Идентификатор : 6
Формат : UTF-8
Идентификатор кодека : S_TEXT/UTF8
Идентификатор кодека/Информация : UTF-8 Plain Text
Язык : English
Default : Нет
Forced : Нет
Меню
00:00:00.000 : en:00:00:00.000
00:08:52.949 : en:00:08:52.949
00:15:59.292 : en:00:15:59.292
00:25:01.917 : en:00:25:01.917
00:34:56.636 : en:00:34:56.636
00:44:47.351 : en:00:44:47.351
00:52:26.060 : en:00:52:26.060
00:59:31.109 : en:00:59:31.109
01:07:36.719 : en:01:07:36.719
01:12:25.550 : en:01:12:25.550
01:22:55.554 : en:01:22:55.554
01:31:25.772 : en:01:31:25.772
01:42:00.656 : en:01:42:00.656
01:49:05.539 : en:01:49:05.539
01:54:18.769 : en:01:54:18.769
02:00:53.538 : en:02:00:53.538
02:11:11.572 : en:02:11:11.572
02:23:06.411 : en:02:23:06.411
02:30:44.994 : en:02:30:44.994
02:39:58.798 : en:02:39:58.798

Награды:

Берлинский кинофестиваль, 2014 год
Победитель (3):
Серебряный Медведь за лучшую режиссерскую работу (Ричард Линклейтер)
Приз гильдии немецкого арт-хауса
Приз газеты Berliner Morgenpost
Номинации (1):
Золотой Медведь

Скриншоты

[Профиль] [ЛС]
Показать сообщения:    

Текущее время: Сегодня 20:42

Часовой пояс: GMT



Вы не можете начинать темы
Вы не можете отвечать на сообщения
Вы не можете редактировать свои сообщения
Вы не можете удалять свои сообщения
Вы не можете голосовать в опросах
Вы не можете прикреплять файлы к сообщениям
Вы не можете скачивать файлы