Отпуск по ранению (Кирилл Капица) (Серии 1-4 из 4) [2014 , Драма, боевик, криминал , HDTVRip 1080p]

 
Автор Сообщение

Враг Нароода ®

Стаж: 1 год 8 месяцев

Сообщений: 111



Награды: 2 (Подробнее)

За внесенный вклад в развитие сайта (Количество: 1) Mega Seeder 1 (Количество: 1)
Торрент-статистика

Создавать темы 12-Окт-2015 16:42

[Цитировать]

--Отпуск по ранению / Leave to injury (Серии 1-4 из 4) -- --Год выпуска: 2014
Выпущено: Россия ,Украина , StarMedia
Жанр:Драма, боевик, криминал
Продолжительность: 00:44:00
Серии: 1-4
Количество серий в сезоне: 4
Перевод :Не требуется
Субтитры: Нет-- --Режиссер: Кирилл Капица--В ролях: Игорь Лифанов, Ирина Сотикова, Александра Никифорова, Алексей Федотов, Юлия Зоркина, Сергей Мурзин, Игорь Ключников, Сергей Воробьёв (IV), Андрей Бабенко, Михаил Сливников, Евгений Курилкин, Дмитрий Александров (III), Валерий Ибрагимов, Геша Меньшиков, Руслан Нанава, Оксана Базилевич, Леонид Майзель, Илья Савельев, Юрий Агейкин-- В результате успешной операции по освобождению заложников командир спецподразделения Артем Говоров ранен. Он прошел курс лечения в госпитале, и теперь едет в положенный ему отпуск по ранению на 10 суток, на родину. Там, в провинциальном приморском городке живет его единственный родственник — двоюродный брат Николай, директор местной школы. За время отпуска Артем знакомится с соседкой Светланой и помогает ей в быту. А в день отъезда майора обратно к месту службы Светлана рассказывает о проблеме — ее дочь Вика не вернулась домой на ночь. Казалось бы, с молодыми такое случается, но Светлана не на шутку встревожена и предчувствует беду. Говоров предлагает новой знакомой помощь, задерживается в городке, и как оказывается, не зря. Вика стала свидетелем криминальной потасовки, и теперь ей угрожает большая опасность..-- --Качество :HDTVRip 1080p
Формат: MKV
Видео кодек: H264
Видео: 6508Кбит/сек,1920х1080(16.9),в 29.976кадр/сек,AVC(High@L4)(CABAC/2 Ref Frames)
Аудио Кодек:AC3
Аудио Russian Dolby Digital 5.1:AC3 , 384 Kbps, 48.0 KHz, 6 ch--

Доп. информация:

Звуковая дорожка сделана путем наложения чистого голоса озвучивателей на центральный канал оригинальной дорожки. Качество идентично звуковой дорожке.
--

MediaInfo СЕЗОНА

Общее
Уникальный идентификатор : 194147229239870806092490474952941773690 (0x920F657011AD6B408DEC15C10F02237A)
Полное имя : E:\К ИНО\Н А Ш Е К И Н О\Отпуск по ранению\Otpusk_po_raneniyu_2014_E01-Е04_H264_DD5.1_N.B_HDTVRip_1080p\Leave _to _injury_2014_E01-Е04_H264_DD5.1_N.B_HDTVRip_1080p.mkv
Формат : Matroska
Версия формата : Version 4 / Version 2
Размер файла : 8,57 Гбайт
Продолжительность : 2 ч. 54 м.
Режим общего битрейта : Переменный
Общий поток : 7031 Кбит/сек
Название фильма : Leave _to _injury_2014_E01-Е04_H264_DD5.1_N.B_HDTVRip_1080p
Дата кодирования : UTC 2015-10-12 11:10:57
Программа кодирования : mkvmerge v8.3.0 ('Over the Horizon') 64bit
Библиотека кодирования : libebml v1.3.1 + libmatroska v1.4.2
DURATION : 02:54:27.890000000
NUMBER_OF_FRAMES : 327121
NUMBER_OF_BYTES : 502457856
_STATISTICS_WRITING_APP : mkvmerge v8.3.0 ('Over the Horizon') 64bit
_STATISTICS_WRITING_DATE_UTC : 2015-10-12 11:10:57
_STATISTICS_TAGS : BPS DURATION NUMBER_OF_FRAMES NUMBER_OF_BYTES
Видео
Идентификатор : 1
Формат : AVC
Формат/Информация : Advanced Video Codec
Профиль формата : High@L4
Параметр CABAC формата : Да
Параметр ReFrames формата : 2 кадра
Параметр GOP формата : M=2, N=15
Идентификатор кодека : V_MPEG4/ISO/AVC
Продолжительность : 2 ч. 54 м.
Вид битрейта : Переменный
Битрейт : 6508 Кбит/сек
Максимальный битрейт : 16,0 Мбит/сек
Ширина : 1920 пикселей
Высота : 1080 пикселей
Соотношение сторон : 16:9
Режим частоты кадров : Постоянный
Частота кадров : 29,970 кадров/сек
Цветовое пространство : YUV
Субдискретизация насыщенности : 4:2:0
Битовая глубина : 8 бит
Тип развёртки : Прогрессивная
Бит/(Пиксели*Кадры) : 0.105
Размер потока : 7,93 Гбайт (93%)
Язык : English
Default : Нет
Forced : Нет
Аудио
Идентификатор : 2
Формат : AC-3
Формат/Информация : Audio Coding 3
Расширение режима : CM (complete main)
Параметр Endianness формата : Big
Идентификатор кодека : A_AC3
Продолжительность : 2 ч. 54 м.
Вид битрейта : Постоянный
Битрейт : 384 Кбит/сек
Каналы : 6 каналов
Расположение каналов : Front: L C R, Side: L R, LFE
Частота : 48,0 КГц
Метод сжатия : С потерями
Размер потока : 479 Мбайт (5%)
Default : Нет
Forced : Нет
--

Скриншоты СЕЗОНА

-- -- -- --Релиз от: Nikolai.Baranov -- -- -- --
[Профиль] [ЛС]
Кто просматривает тему:

Форум Тема Автор Размер
Chanson (Шансон) Сборник - Отпусти мою любовь. Русский блатной сборник - 2015, MP3, 256 kbps Magnat 705 MB
Фильмы 2011 года Кошки-мышки / Поймай и отпусти / Catch and Release (Сюзанна Грант / Susannah Grant) [2006 г., США, драма, мелодрама, комедия, BDRip] MVO (R5) reversefile 1.46 GB
Фильмы 2010 года Не отпускай меня / Never Let Me Go (Марк Романек / Mark Romanek) [2010, Великобритания, США, фантастика, триллер, драма, HDRip] MVO (1 канал) + Original Eng painkiller 1.45 GB
Фильмы 2010 года Не отпускай меня / Never Let Me Go (Марк Романек / Mark Romanek) [2010, Великобритания, США, фантастика, триллер, драма, HDTVRip] MVO (1 канал) painkiller 1.37 GB
Фильмы (HD Rips | 720p, 1080p) Отпуск летом (Артем Насыбулин) [2015, Россия, Мелодрама, HDTV 1080i] TorrentFilm 5.41 GB
Отечественные cериалы Отпуск по ранению [01-04 из 04] (2014) HDTVRip 720p достали все 7.39 GB
Отечественные cериалы Отпуск по ранению [01-04 из 04] (2015) HDTVRip достали все 2.15 GB
Фильмы 2011 года Ох, уж этот отпуск / Ненавижу отпуск / Je hais les vacances (Стефан Клавье / Stéphane Clavier) [2007, Франция, Бельгия, Комедия, SATRip] MVO (Игмар) TorrentFilm 1.37 GB
Показать сообщения:    

Текущее время: Сегодня 08:13

Часовой пояс: GMT



Вы не можете начинать темы
Вы не можете отвечать на сообщения
Вы не можете редактировать свои сообщения
Вы не можете удалять свои сообщения
Вы не можете голосовать в опросах
Вы не можете прикреплять файлы к сообщениям
Вы не можете скачивать файлы