Отличный Новый год на Пятом! Легенды Ретро FM ( эфир 2015.01.01) [2014, Pop, DVB]

 
Автор Сообщение

sergej644 ®

Пол:

Стаж: 4 года 11 месяцев

Сообщений: 6043

Откуда: Soviet Union



Награды: Нет

Торрент-статистика

Создавать темы 04-Янв-2015 10:14

[Цитировать]

Отличный Новый год на Пятом! Легенды Ретро FM ( эфир 2015.01.01)
Год выпуска: 2014
Страна: Россия
Жанр: Pop
Продолжительность: 01:55:12 + 01:58:17
Описание: За два часа до Нового года Пятый дает старт 8-часовому музыкальному марафону с участием звезд российской и зарубежной эстрады. Лучшие концерты этого года! Популярные артисты и зажигательные хиты в новогоднюю ночь до самого утра 1 января. Мы будем петь и танцевать вместе с Филиппом Киркоровым, Кристиной Орбакайте, Юрием Антоновым, Александром Буйновым, Лаймой Вайкуле, Валерием Леонтьевым, Татьяной Булановой, Олегом Газмановым, Анне Вески, Денисом Майдановым, певицей Натали, группой Нэнси, Ириной Салтыковой, Самантой Фокс, Пупо, Рики и Повери, Си Си Кетч, группой Фабрика, Денисом Клявером и многими-многими другими.

Треклист

1 часть

Юрий Антонов-Я вспоминаю (Летящей походкой)
Мираж - Наступает ночь (Суханкина)
baccara - yes sir, i can boogie (Да, сэр, я могу танцевать буги-вуги)
Анжелика Варум - Зимняя Вишня
Al Bano - Felicita
Лев Лещенко - Соловьиная роща
C.C.Catch - I Can Lose My Heart Tonight (Я могу потерять сердце этой ночью)
Юрий Лоза - На Маленьком Плоту
Secret Service - Ten O'clock Postman ( Голубь почтовый Принеси мне ее письмо.)
Мираж - Музыка Нас Связала (Суханкина)
Gianni Morandi & Al Bano - Azzurro
Лещенко Лев - Прощай!
Afric Simone - Hafanana
Крис Кельми - Ночное рандеву
Secret Service - Flash In The Night (Вспышка в ночи)
Анжелика Варум - Ля-Ля-Фа
Baccara - Sorry, I'm A Lady (Извините, я — леди)
Юрий Антонов - Нет тебя прекрасней
Александр Айвазов - Лилии
Al Bano - Sharazan
Юрий Лоза - 100 часов
Afric Simone - Todo Pasara,Maria (Все пройдет, Мария)
Юрий Антонов - Не забывай
Наташа Королева - Желтые тюльпаны
Олег Газманов - Белый снег
Ирина Аллегрова - Привет, Андрей!
Ядвига Поплавская и Александр Тиханович - Малиновки заслышав голосок
Мираж - Я больше не прошу (Суханкина)
Наташа Королёва - Синие лебеди
Юрий Антонов Крыша Дома Твоего

2 часть

Валерий Леонтьев - Зеленый свет
Анне Вески - Позади крутой поворот
Dschinghis Khan — Moskau
Лада Дэнс - Один раз в год сады цветут
Ирина Аллегрова - Угонщица
ВИА Поющие гитары - Синяя Песня (Синий Иней)
Joy - Touch By Touch
Андрей Державин - Не плачь Алиса
Afric Simone - Hafanana
Валерий Леонтьев - Полет на Дельтаплане
C.C. Catch - Soul Survivor
Вадим Казаченко - Ах, какая женщина
Анне Вески - Кто Тебе Сказал (В. Добрынин - Л. Дербенёв)
Виктор Салтыков - Кони в яблоках
Dr. Alban - It's my life
Ирина Аллегрова - Свадебные Цветы
Лада Дэнс - Регги в ночи (Жить нужно в кайф)
Joy - Valerie
Валерий Леонтьев - Кабаре
Pupo - Gelato Al Cioccolato
Вадим Казаченко - На летящем коне
Afric Simone - Todo Pasara,Maria
ВИА Поющие гитары - Люди встречаются
Dschinghis Khan — Dschinghis Khan
Андрей Державин - Чужая свадьба
Pupo - Burattino telecomandato
Лада Дэнс - Аромат любви
Валерий Леонтьев - Бездомная любовь
Вадим Казаченко - Больно Мне, Больно
Pupo - Su di Noi
Лада Денс - Девочка ночь
качество: DVB
формат: MPG
Видео: MPEG2 Video 720x576 (4:3) 25.00fps ~4 109 Kbps
Аудио: MPEG Audio 48000Hz 2 channels 192 Кбит/сек

Отчёт MediaInfo

General
Complete name                  : Q:\2014-2015 НОВОГОДНИЕ\Отличный Новый год на Пятом! Легенды Ретро FM   2015.01.01\Отличный Новый год на Пятом! Легенды Ретро FM 1 часть  2015.01.01.mpg
Format                         : MPEG-PS
File size                      : 3.53 GiB
Duration                       : 1h 55mn
Overall bit rate mode          : Variable
Overall bit rate               : 4 389 Kbps
Writing library                : (c) 1998-2012 Womble Multimedia, Inc. / MPEG Video Wizard DVD 5.0.1.100 (03/2011) / Sep 22 2012
Video
ID                             : 224 (0xE0)
Format                         : MPEG Video
Format version                 : Version 2
Format profile                 : Main@Main
Format settings, BVOP          : Yes
Format settings, Matrix        : Custom
Format settings, GOP           : M=3, N=15
Format settings, picture struc : Frame
Duration                       : 1h 55mn
Bit rate mode                  : Variable
Bit rate                       : 4 109 Kbps
Maximum bit rate               : 15.0 Mbps
Width                          : 720 pixels
Height                         : 576 pixels
Display aspect ratio           : 4:3
Frame rate                     : 25.000 fps
Standard                       : PAL
Color space                    : YUV
Chroma subsampling             : 4:2:0
Bit depth                      : 8 bits
Scan type                      : Interlaced
Scan order                     : Top Field First
Compression mode               : Lossy
Bits/(Pixel*Frame)             : 0.396
Time code of first frame       : 00:00:00:00
Time code source               : Group of pictures header
GOP, Open/Closed               : Open
Stream size                    : 3.31 GiB (94%)
Writing library                : (c) 1998-2012 Womble Multimedia, Inc. / MPEG Video Wizard DVD 5.0.1.100 (03/2011) / Sep 22 2012
GOP, Open/Closed of first fram : Closed
Audio
ID                             : 192 (0xC0)
Format                         : MPEG Audio
Format version                 : Version 1
Format profile                 : Layer 2
Duration                       : 1h 55mn
Bit rate mode                  : Constant
Bit rate                       : 192 Kbps
Channel(s)                     : 2 channels
Sampling rate                  : 48.0 KHz
Compression mode               : Lossy
Stream size                    : 158 MiB (4%)

Скриншоты

[Профиль] [ЛС]
Показать сообщения:    

Текущее время: Сегодня 06:18

Часовой пояс: GMT



Вы не можете начинать темы
Вы не можете отвечать на сообщения
Вы не можете редактировать свои сообщения
Вы не можете удалять свои сообщения
Вы не можете голосовать в опросах
Вы не можете прикреплять файлы к сообщениям
Вы не можете скачивать файлы