Отладка / Debug (Дэвид Хьюлетт / David Hewlett) [2014, Канада, фантастика, BDRip] VO (Виктор Береговых)

 
Автор Сообщение

TorrentFilm ®

Пол:

Стаж: 2 года

Сообщений: 7741



Награды: Нет

Торрент-статистика

Создавать темы 22-Дек-2014 02:01

[Цитировать]

Отладка / Debug
Страна: Канада
Жанр: фантастика
Год выпуска: 2014
Продолжительность: 01:25:57
Перевод: Одноголосый закадровый (Виктор Береговых) - по переводу Михаила Васильева
Cубтитры: нет
Режиссер: Дэвид Хьюлетт / David Hewlett
В ролях: Теника Дэвис, Адриан Холмс, Керр Хьюит, Кайл Мак, Сидни Лидер, Джейдин Вонг, Адам Батчер, Джейсон Момоа
Описание: Группу осужденных за различные киберпреступления хакеров отправляют на заброшенную космическую станцию. Их задача: починить суперкомпьютер, управляющий этой станцией. Если им это удастся, их ждет свобода. Проблема в том, что этот компьютер оказывается хитрее, чем все хакеры вместе взятые...
Сэмпл: https://www.sendspace.com/file/3lo6hm
Качество видео: BDRip
Формат видео: AVI
Видео: XviD, 640x344 (1.860), 23.976 fps, 999 kbps avg, 0.189 bit/pixel
Аудио: AC3, 48.0 KHz, 192 Kbps, 2 channels

MediaInfo

Format : AVI
Format/Info : Audio Video Interleave
File size : 738 MiB
Duration : 1h 25mn
Overall bit rate : 1 201 Kbps
Writing application : VirtualDubMod 1.5.10.2 (build 2540/release)
Writing library : VirtualDubMod build 2540/release
Video
ID : 0
Format : MPEG-4 Visual
Format profile : AdvancedSimple@L5
Format settings, BVOP : Yes
Format settings, QPel : No
Format settings, GMC : No warppoints
Format settings, Matrix : Default (H.263)
Muxing mode : Packed bitstream
Codec ID : XVID
Codec ID/Hint : XviD
Duration : 1h 25mn
Bit rate : 999 Kbps
Width : 640 pixels
Height : 344 pixels
Display aspect ratio : 1.860
Frame rate : 23.976 fps
Resolution : 24 bits
Colorimetry : 4:2:0
Scan type : Progressive
Bits/(Pixel*Frame) : 0.189
Stream size : 614 MiB (83%)
Writing library : XviD 66
Audio
ID : 1
Format : AC-3
Format/Info : Audio Coding 3
Codec ID : 2000
Duration : 1h 25mn
Bit rate mode : Constant
Bit rate : 192 Kbps
Channel(s) : 2 channels
Channel positions : L R
Sampling rate : 48.0 KHz
Stream size : 118 MiB (16%)
Alignment : Split accross interleaves
Interleave, duration : 42 ms (1.00 video frame)
Interleave, preload duration : 500 ms

Скриншот c названием фильма

Скриншоты

[Профиль] [ЛС]
Кто просматривает тему:

Форум Тема Автор Размер
Фильмы 2014 года Отладка / Debug (Дэвид Хьюлетт) [2014 г., ужасы, фантастика, HDRip] BOSS 1.37 GB
Показать сообщения:    

Текущее время: Сегодня 18:29

Часовой пояс: GMT



Вы не можете начинать темы
Вы не можете отвечать на сообщения
Вы не можете редактировать свои сообщения
Вы не можете удалять свои сообщения
Вы не можете голосовать в опросах
Вы не можете прикреплять файлы к сообщениям
Вы не можете скачивать файлы