Открытое море: Новые жертвы / The Reef (Эндрю Трауки / Andrew Traucki) [2010, Австралия, триллер, ужасы, драма, HDRip] MVO

 
Автор Сообщение

TorrentFilm ®

Пол:

Стаж: 2 года

Сообщений: 7741



Награды: Нет

Торрент-статистика

Создавать темы 07-Апр-2015 00:03

[Цитировать]

Открытое море: Новые жертвы / The Reef
Страна: Австралия
Жанр: Драма, Ужасы, Триллер
Год выпуска: 2010
Продолжительность: 01:27:47
Перевод: Профессиональный (многоголосый, закадровый)
Режиссер: Эндрю Трауки / Andrew Traucki
В ролях: Дэмиэн Уолш-Хоулинг, Гайтон Грантли, Эдриэнн Пикеринг, Зои Нэйлор, Киран Дарси-Смит, Марк Симпсон
Описание: Несколько молодых людей терпят кораблекрушение в море. Днище лодки пробито, скоро она перевернется, они знают, что их искать никто не будет, а единственный шанс спастись - доплыть до виднеющегося вдалеке острова. Некислая картина представляется. Ссора ребят перерастает в жесткий конфликт, кто-то готов плыть, а кто-то хочет остаться у перевернувшейся лодки. Дополнит эту картину, конечно же кровавыми красками, огромная акула, преследующая горе-мореплавателей...
Доп. информация:

Формат видео: AVI
Качество видео: HDRip (BDRip.1080p)
Видео кодек: XviD
Аудио кодек: MP3
Видео: XviD, 640x272, 23.976fps, 1050kbps
Аудио: MPEG Layer 3, 2ch, 48000Hz, 128kbps

MediaInfo

General
Complete name : Otkrytoe.More.3.2010.P.HDRip.700.MediaClub.CurHaJI.avi
Format : AVI
Format/Info : Audio Video Interleave
File size : 745 MiB
Duration : 1h 27mn
Overall bit rate : 1 186 Kbps
Movie name : Otkrytoe.More.3.2010.P.HDRip.700.MediaClub.CurHaJI
Writing application : VirtualDubMod 1.5.10.3 | www.virtualdub-fr.org || (build 2550/release)
Writing library : VirtualDub build 35491/release
Video
ID : 0
Format : MPEG-4 Visual
Format profile : Advanced Simple@L5
Format settings, BVOP : 1
Format settings, QPel : No
Format settings, GMC : No warppoints
Format settings, Matrix : Custom
Codec ID : XVID
Codec ID/Hint : XviD
Duration : 1h 27mn
Bit rate : 1 050 Kbps
Width : 640 pixels
Height : 272 pixels
Display aspect ratio : 2.35:1
Frame rate : 23.976 fps
Color space : YUV
Chroma subsampling : 4:2:0
Bit depth : 8 bits
Scan type : Progressive
Compression mode : Lossy
Bits/(Pixel*Frame) : 0.251
Stream size : 659 MiB (88%)
Writing library : XviD 1.2.1 (UTC 2008-12-04)
Audio
ID : 1
Format : MPEG Audio
Format version : Version 1
Format profile : Layer 3
Codec ID : 55
Codec ID/Hint : MP3
Duration : 1h 27mn
Bit rate mode : Constant
Bit rate : 128 Kbps
Channel(s) : 2 channels
Sampling rate : 48.0 KHz
Compression mode : Lossy
Stream size : 80.4 MiB (11%)
Alignment : Aligned on interleaves
Interleave, duration : 42 ms (1.00 video frame)
Interleave, preload duration : 504 ms
Writing library : L3.99r
Encoding settings : -m s -V 4 -q 2 -lowpass 17 -b 128

Скриншоты

[Профиль] [ЛС]

Создавать темы 06-Авг-2015 22:37 (спустя 3 месяца 29 дней)

Топик был перенесен из форума Фильмы до 2014 года в форум Фильмы до 2012 года
sergej644
 

Создавать темы 12-Июн-2016 07:54 (спустя 1 год 2 месяца)

Топик был перенесен из форума Фильмы 2011 года в форум Фильмы 2010 года
Russian Mafia
 
Кто просматривает тему:

Форум Тема Автор Размер
Viasat History Viasat History: Сокровища Эрмитажа (Открывая Эрмитаж) / Hermitage Revealed (Margy Kinmonth) [2014 г., Документальный, история, искусство, SATRip] skorpionN 1.16 GB
XXXI Летние Олимпийские игры. Рио-де-Жанейро 2016 (Бразилия) XXXI Летние Олимпийские Игры. Рио-де-Жанейро (Бразилия). Плавание. Женщины. Открытая вода. 10км [15.08] (2016) IPTVRip-AVC BOSS 965 MB
XXXI Летние Олимпийские игры. Рио-де-Жанейро 2016 (Бразилия) XXXI Летние Олимпийские Игры. Рио-де-Жанейро (Бразилия). Плавание. Мужчины. Открытая вода. 10км [16.08] (2016) IPTVRip-AVC BOSS 772 MB
XXXI Летние Олимпийские игры. Рио-де-Жанейро 2016 (Бразилия) XXXI Летние Олимпийские Игры. Рио-де-Жанейро (Бразилия). Церемония открытия [Feed] [05.08] (2016) HDTV 1080i Russian Mafia 34.87 GB
XXXI Летние Олимпийские игры. Рио-де-Жанейро 2016 (Бразилия) XXXI Летние Олимпийские Игры. Рио-де-Жанейро (Бразилия). Церемония открытия [Матч! Арена HD] [05.08] (2016) HDTV 1080i sergej644 21.47 GB
XXXI Летние Олимпийские игры. Рио-де-Жанейро 2016 (Бразилия) XXXI Летние Олимпийские Игры. Рио-де-Жанейро (Бразилия). Церемония открытия [Матч! Игра HD] [05.08] (2016) IPTV 1080i BOSS 7.95 GB
XXXI Летние Олимпийские игры. Рио-де-Жанейро 2016 (Бразилия) XXXI Летние Олимпийские Игры. Рио-де-Жанейро (Бразилия). Церемония открытия [Матч! Игра HD] [05.08] (2016) IPTVRip sergej644 3.18 GB
XXXI Летние Олимпийские игры. Рио-де-Жанейро 2016 (Бразилия) XXXI Летние Олимпийские Игры. Рио-де-Жанейро (Бразилия). Церемония открытия [Россия 1 HD] [05.08] (2016) IPTV 1080i sergej644 13.17 GB
Показать сообщения:    

Текущее время: Сегодня 02:31

Часовой пояс: GMT



Вы не можете начинать темы
Вы не можете отвечать на сообщения
Вы не можете редактировать свои сообщения
Вы не можете удалять свои сообщения
Вы не можете голосовать в опросах
Вы не можете прикреплять файлы к сообщениям
Вы не можете скачивать файлы