Отзвук (Алишер Хамдамов)[2015, Драма, BDRip] 1080p

 
Автор Сообщение

sergej644 ®

Пол:

Стаж: 4 года 11 месяцев

Сообщений: 6040

Откуда: Soviet Union



Награды: Нет

Торрент-статистика

Создавать темы 21-Июн-2015 10:49

[Цитировать]

Информация о фильме
Название: Отзвук
Год выхода: 2015
Жанр: Драма
Режиссер: Алишер Хамдамов
В ролях: Светлана Драченина, Ольга Лысак, Иван Моховиков, Мария Палей, Игорь Карташёв, Андрей Якимов, Леся Куликова, Егор Потапов, Василиса Усикова, Данил Чопоров
О фильме:
После долгого отсутствия в деревне приезжает из города, чтобы навестить 31-летнюю Нину, её старшая сестра, 40-летняя Рита, а вместе с ней — 19-летняя дочь Лена. Визит этих городских жителей, у которых остались во вроде бы благополучном существовании в мегаполисе собственные душевные неурядицы и личные беды, вносит неожиданное смятение в налаженную и внешне спокойную жизнь Нины и её мужа Вити. Медея из российской провинции? Трагедия утраченной любви и неотвратимой мести за поруганную жизнь? Но эта история — не только об отчаянии человеческой души, которая больше не в силах терпеть боль и предательство. Не менее важна тревожная, складывающаяся где-то поблизости ситуация уже за пределами отдельной, частной жизни. Макромир оказывает воздействие на микромир, порой приводя к губительным последствиям.

Выпущено: Россия / Продюсерский центр «Джан»
Продолжительность: 01:28:20
Перевод: Оригинальный
Файл
Формат: MKV
Качество: BDRip 1080p
Видео: MPEG-4 AVC, 14000 Кбит/с, 1920х1080
Звук: AC3, 2 ch, 256 Кбит/с
СЭМПЛ

MI

General
Unique ID : 206912821545029100824317135241730537406 (0x9BA9F5BB4B24794980762FB49A7B37BE)
Complete name : F:GANGreliziotzvukOtzvuk.2015.O.BDRip.1080p.ELEKTRI4KA.uniongang.tv.mkv
Format : Matroska
Format version : Version 4 / Version 2
File size : 8.79 GiB
Duration : 1h 28mn
Overall bit rate : 14.2 Mbps
Encoded date : UTC 2015-06-20 11:25:18
Writing application : mkvmerge v6.9.1 ('Blue Panther') 64bit built on Apr 18 2014 18:23:38
Writing library : libebml v1.3.0 + libmatroska v1.4.1
Video
ID : 1
Format : AVC
Format/Info : Advanced Video Codec
Format profile : High@L4.1
Format settings, CABAC : Yes
Format settings, ReFrames : 6 frames
Codec ID : V_MPEG4/ISO/AVC
Duration : 1h 28mn
Bit rate : 14.0 Mbps
Width : 1 920 pixels
Height : 1 080 pixels
Display aspect ratio : 16:9
Frame rate mode : Constant
Frame rate : 25.000 fps
Color space : YUV
Chroma subsampling : 4:2:0
Bit depth : 8 bits
Scan type : Progressive
Bits/(Pixel*Frame) : 0.270
Stream size : 8.46 GiB (96%)
Writing library : x264 core 125 r2200 999b753
Encoding settings : cabac=1 / ref=6 / deblock=1:-3:-3 / analyse=0x3:0x113 / me=umh / subme=10 / psy=1 / psy_rd=1.00:0.10 / mixed_ref=0 / me_range=22 / chroma_me=1 / trellis=2 / 8x8dct=1 / cqm=0 / deadzone=21,11 / fast_pskip=1 / chroma_qp_offset=-3 / threads=12 / lookahead_threads=2 / sliced_threads=0 / nr=0 / decimate=1 / interlaced=0 / bluray_compat=0 / constrained_intra=0 / bframes=6 / b_pyramid=2 / b_adapt=1 / b_bias=0 / direct=3 / weightb=1 / open_gop=0 / weightp=1 / keyint=250 / keyint_min=25 / scenecut=40 / intra_refresh=0 / rc_lookahead=60 / rc=2pass / mbtree=1 / bitrate=14000 / ratetol=1.0 / qcomp=0.60 / qpmin=0 / qpmax=69 / qpstep=4 / cplxblur=20.0 / qblur=0.5 / ip_ratio=1.40 / aq=1:1.00
Language : English
Default : Yes
Forced : No
Audio
ID : 2
Format : AC-3
Format/Info : Audio Coding 3
Mode extension : CM (complete main)
Format settings, Endianness : Big
Codec ID : A_AC3
Duration : 1h 28mn
Bit rate mode : Constant
Bit rate : 256 Kbps
Channel(s) : 2 channels
Channel positions : Front: L R
Sampling rate : 48.0 KHz
Compression mode : Lossy
Stream size : 162 MiB (2%)
Language : Russian
Default : Yes
Forced : No

Скриншоты

Релиз от:
[Профиль] [ЛС]
Показать сообщения:    

Текущее время: Сегодня 04:48

Часовой пояс: GMT



Вы не можете начинать темы
Вы не можете отвечать на сообщения
Вы не можете редактировать свои сообщения
Вы не можете удалять свои сообщения
Вы не можете голосовать в опросах
Вы не можете прикреплять файлы к сообщениям
Вы не можете скачивать файлы