Отец солдата (1964) HDTVRip [720p] [Цветная версия]

 
Автор Сообщение

KottoSoft ®

Стаж: 2 года

Сообщений: 119



Награды: Нет

Торрент-статистика

Создавать темы 17-Дек-2014 02:44

[Цитировать]

-Отец солдата (1964) HDTVRip [Цветная версия]Год выпуска: 1964
Жанр: Военный, Драма
Описание фильма:
Противоестественность войны для человека - труженика, созидателя - показана на примере судьбы старого крестьянина-виноградаря из Грузии. Георгий Махарашвили едет повидаться с сыном, который ранен и находится в госпитале. Но пока отец добирается до места назначения, сын снова отправляется на фронт. Однако Георгий уже не может вернуться в родную деревню. Он вместе с советской армией проходит весь ее путь - путь до Берлина, до Победы над фашизмом. И только в последние дни войны находит сына. Увы, встреча эта была последней...
Режиссер: Резо Чхеидзе
Актеры: Серго Закариадзе, Владимир Привальцев, Александр Назаров, Александр Лебедев, Владимир Колокольцев, Юра Дроздов, Иван Косых, Виктор Косых, Виктор Уральский, Кетеван (Кето) Бочоришвили, Владимир Пицек, Петр Любешкин, Татьяна Решетникова, Николай Бармин, Инна Выходцева, Ромуальд (Роман) Вильдан, Бондо Гогинава, Вячеслав Жариков, Валентин Кулик, Гия Кобахидзе, Ираклий Кокрашвили, Жана Квитайшвили, Елена Максимова, Раднэр Муратов, Виктор Мизин, Ираклий Нижарадзе, Феликс Степун, Нуну Мачавариани, Валентин Донгузашвили
Продолжительность: 01:26:36
Качество видео: HDTVRip 720p

Сэмпл: Ссылка
Видеокодек: MPEG-4 AVC/H.264
Битрейт видео: ~4200 Кбит/с (25.000 f/s)
Размер кадра: 1060x720
Аудиокодек: AC3
Аудио 1: 384 Kb/s (2 ch, 48 KGz)
Аудио 2: 448 Кb/s (6 ch, 48 KGz)
Субтитры: Русские (форсированные, на грузинскую речь)Скриншоты:

Дополнительные скриншоты:

Mediainfo:

I:\Torrent_Download\Otec.soldata.1964.x264.HDTVRip.(720p).mkv
   General
      Unique ID : 236892818769315605830157223429149616506 (0xB237E5B74687DABA9436086A8E2CE97A)
      Complete name : I:\Torrent_Download\Otec.soldata.1964.x264.HDTVRip.(720p).mkv
      Format : Matroska
      File size : 3.05 GiB
      Duration : 1h 26mn
      Overall bit rate : 5 034 Kbps
      Movie name : = MediaClub = rip by Painter
      Encoded date : UTC 2013-10-25 13:45:08
      Writing application : mkvmerge v6.5.0 ('Isn't she lovely') built on Oct 20 2013 12:50:05
      Writing library : libebml v1.3.0 + libmatroska v1.4.1
   Video #1
      ID : 1
      Format : AVC
      Format/Info : Advanced Video Codec
      Format profile : [url=mailto:High@L4.1]High@L4.1[/url]
      Format settings, CABAC : Yes
      Format settings, ReFrames : 9 frames
      Codec ID : V_MPEG4/ISO/AVC
      Duration : 1h 26mn
      Bit rate : 4 200 Kbps
      Width : 1 060 pixels
      Height : 720 pixels
      Display aspect ratio : 3:2
      Frame rate : 25.000 fps
      Color space : YUV
      Chroma subsampling : 4:2:0
      Bit depth : 8 bits
      Scan type : Progressive
      Bits/(Pixel*Frame) : 0.220
      Stream size : 2.48 GiB (81%)
      Writing library : x264 core 130 r2273 b3065e6
      Encoding settings : cabac=1 / ref=9 / deblock=1:-3:-2 / analyse=0x3:0x133 / me=umh / subme=11 / psy=1 / psy_rd=1.00:0.15 / mixed_ref=1 / me_range=32 / chroma_me=1 / trellis=2 / 8x8dct=1 / cqm=0 / deadzone=21,11 / fast_pskip=0 / chroma_qp_offset=-3 / threads=6 / lookahead_threads=1 / sliced_threads=0 / nr=0 / decimate=0 / interlaced=0 / bluray_compat=0 / constrained_intra=0 / bframes=7 / b_pyramid=2 / b_adapt=2 / b_bias=0 / direct=3 / weightb=1 / open_gop=0 / weightp=2 / keyint=250 / keyint_min=25 / scenecut=40 / intra_refresh=0 / rc=2pass / mbtree=0 / bitrate=4200 / ratetol=1.0 / qcomp=0.60 / qpmin=0 / qpmax=69 / qpstep=4 / cplxblur=20.0 / qblur=0.5 / ip_ratio=1.40 / pb_ratio=1.30 / aq=1:0.80
      Language : Russian
   Audio #2
      ID : 2
      Format : AC-3
      Format/Info : Audio Coding 3
      Mode extension : CM (complete main)
      Codec ID : A_AC3
      Duration : 1h 26mn
      Bit rate mode : Constant
      Bit rate : 384 Kbps
      Channel(s) : 2 channels
      Channel positions : Front: L R
      Sampling rate : 48.0 KHz
      Bit depth : 16 bits
      Compression mode : Lossy
      Stream size : 238 MiB (8%)
      Title : 2.0
      Language : Russian
   Audio #3
      ID : 3
      Format : AC-3
      Format/Info : Audio Coding 3
      Mode extension : CM (complete main)
      Codec ID : A_AC3
      Duration : 1h 26mn
      Bit rate mode : Constant
      Bit rate : 448 Kbps
      Channel(s) : 6 channels
      Channel positions : Front: L C R, Side: L R, LFE
      Sampling rate : 48.0 KHz
      Bit depth : 16 bits
      Compression mode : Lossy
      Stream size : 278 MiB (9%)
      Title : 5.1
      Language : Russian
   Text #4
      ID : 4
      Format : UTF-8
      Codec ID : S_TEXT/UTF8
      Codec ID/Info : UTF-8 Plain Text
      Language : Russian
[Профиль] [ЛС]

Создавать темы 06-Авг-2015 22:03 (спустя 7 месяцев 20 дней)

Топик был перенесен из форума Кино СССР в форум Кино СССР
sergej644
 
Кто просматривает тему:

Показать сообщения:    

Текущее время: Сегодня 20:33

Часовой пояс: GMT



Вы не можете начинать темы
Вы не можете отвечать на сообщения
Вы не можете редактировать свои сообщения
Вы не можете удалять свои сообщения
Вы не можете голосовать в опросах
Вы не можете прикреплять файлы к сообщениям
Вы не можете скачивать файлы