Отель «Мэриголд»: Лучший из экзотических / The Best Exotic Marigold Hotel (2011) BDRip 1080p от NNNB

 
Автор Сообщение

sergej644 ®

Пол:

Стаж: 4 года 11 месяцев

Сообщений: 6035

Откуда: Soviet Union



Награды: Нет

Торрент-статистика

Создавать темы 16-Фев-2015 19:14

[Цитировать]

Отель «Мэриголд»: Лучший из экзотических / The Best Exotic Marigold Hotel
Русское название: Отель «Мэриголд»: Лучший из экзотических
Оригинальное название: The Best Exotic Marigold Hotel
Год выпуска: 2011
Жанр: драма, комедия
Выпущено: Великобритания, США, ОАЭ
Режиссер: Джон Мэдден / John Madden
В ролях: Джуди Денч , Билл Найи , Дев Патель , Том Уилкинсон , Мэгги Смит , Пенелопа Уилтон , Селия Имри , Рональд Пикап , Патрик Пирсон , Хью Диксон , Джеймс Роулингс , Лиза Тарбак
Перевод: Дублированный - [Лицензия]

Сюжет фильма:
Фильм повествует о группе британских пенсионеров, которые решили «удалиться на покой» в менее затратную по расходам и гораздо более экзотическую Индию. Соблазнившись рекламой о заново восстановленном отеле «Мериголд» и в предвкушении жизни полной удовольствий и безделья, они прибывают на место, только чтобы обнаружить, что отель, на самом деле, представляет собой лишь бледную тень своего былого величия. Но, несмотря на то, что окружающая обстановка далека от той роскоши, которую они себе представляли, совместные приключения бесповоротно меняют каждого из них, и они осознают, что можно начать жить заново и найти любовь, если отпустить прошлое...

PG-13 - Детям до 13 лет просмотр не желателен

Знаете ли вы, что...

Фильм является экранизацией вышедшего в 2004 году романа «Эти глупые вещи» британской писательницы Деборы Моггак. По случаю выхода фильма в феврале 2012 года книга была переиздана под названием «Отель «Мэриголд»: Лучший из экзотических».
В одной из сцен фильма героиня Пенелопы Уилтон читает роман «Тюльпанная лихорадка» («Tulip Fever»), который тоже написала Дебора Моггак.
Для съёмок создатели фильма остановили свой выбор на отеле Равла Кхемпур. Он расположен в небольшой деревушке Кхемпур, в 50 километрах от крупного города Удайпур, штат Раджастхан. В прошлом это был королевский дворец, приспособленный затем под отель для туристов.
Владелец отеля Равла Кхемпур остался так доволен работой декораторов, что решил оставить все комнаты и помещения в таком виде для будущих клиентов.
Помимо отеля Равла Кхемпур основная часть съёмок прошла в столице штата Раджастхан Джайпур.
Специальная съёмочная площадка в Джайпуре воссоздавала целую улицу восточного базара.
Почти все исполнители главных ролей, средний возраст которых составил 68 лет, никогда в жизни до этого не бывали в Индии. Единственным исключением оказалась Селия Имри, побывавшая в этой стране за двадцать лет до съёмок фильма.
Первоначально роли Нормана и Мэдж должны были сыграть Питер О’Тул и Джули Кристи.
Персонажа Тома Уилкинсона зовут Грэм Дэшвуд. Ранее Том Уилкинсон играл мистера Дэшвуда в классической британской экранизации «Разум и чувство» (1995).
Качество: BDRip 1080p
Формат: AVC (библиотека кодирования x.264)
Контейнер (Расширение): MKV
Видео: 1918x816 (2.35:1), 7888 Кбит/сек, 23,976 кадр/сек, 0,210 Бит/[Пиксели*Кадры]
Аудио №1: русский / AC3 / 5.1 / 48 kHz / 448 kbps / |Дублированный|
Аудио №2: английский / AC3 / 5.1 / 48 kHz / 640 kbps /
Субтитры: английские (Full), русские (Full)
Навигация по главам(Чаптеры): есть
Продолжительность: 02:03:45
Автор рипа:

MediaInfo

Format                                   : Matroska
Format version                           : Version 2
File size                                : 7.76 GiB
Duration                                 : 2h 3mn
Overall bit rate                         : 8 974 Kbps
Movie name                               : Otel' «Mjerigold»: Luchshij iz jekzoticheskih.(2011).BDRip.1080p.[denis100]
Encoded date                             : UTC 2015-02-09 08:38:37
Writing application                      : mkvmerge v5.8.0 ('No Sleep / Pillow') built on Sep  2 2012 15:37:04
Writing library                          : libebml v1.2.3 + libmatroska v1.3.0
Video
ID                                       : 1
Format                                   : AVC
Format/Info                              : Advanced Video Codec
Format profile                           : High@L4.1
Format settings, CABAC                   : Yes
Format settings, ReFrames                : 5 frames
Codec ID                                 : V_MPEG4/ISO/AVC
Duration                                 : 2h 3mn
Bit rate                                 : 7 888 Kbps
Width                                    : 1 918 pixels
Height                                   : 816 pixels
Display aspect ratio                     : 2.35:1
Frame rate                               : 23.976 fps
Color space                              : YUV
Chroma subsampling                       : 4:2:0
Bit depth                                : 8 bits
Scan type                                : Progressive
Bits/(Pixel*Frame)                       : 0.210
Stream size                              : 6.66 GiB (86%)
Title                                    : Otel' «Mjerigold»: Luchshij iz jekzoticheskih.(2011).BDRip.1080p.[denis100]
Writing library                          : x264 core 144 r2525 40bb568
Encoding settings                        : cabac=1 / ref=5 / deblock=1:-3:-3 / analyse=0x3:0x133 / me=umh / subme=11 / psy=1 / psy_rd=1.00:0.10 / mixed_ref=1 / me_range=32 / chroma_me=1 / trellis=2 / 8x8dct=1 / cqm=0 / deadzone=21,11 / fast_pskip=0 / chroma_qp_offset=-3 / threads=6 / lookahead_threads=1 / sliced_threads=0 / nr=0 / decimate=1 / interlaced=0 / bluray_compat=0 / constrained_intra=0 / bframes=10 / b_pyramid=2 / b_adapt=2 / b_bias=0 / direct=3 / weightb=1 / open_gop=0 / weightp=2 / keyint=240 / keyint_min=23 / scenecut=40 / intra_refresh=0 / rc=2pass / mbtree=0 / bitrate=7888 / ratetol=1.0 / qcomp=0.60 / qpmin=0 / qpmax=69 / qpstep=4 / cplxblur=20.0 / qblur=0.5 / ip_ratio=1.40 / pb_ratio=1.30 / aq=1:0.90
Language                                 : English
Default                                  : Yes
Forced                                   : No
Audio #1
ID                                       : 2
Format                                   : AC-3
Format/Info                              : Audio Coding 3
Mode extension                           : CM (complete main)
Codec ID                                 : A_AC3
Duration                                 : 2h 3mn
Bit rate mode                            : Constant
Bit rate                                 : 448 Kbps
Channel(s)                               : 6 channels
Channel positions                        : Front: L C R, Side: L R, LFE
Sampling rate                            : 48.0 KHz
Bit depth                                : 16 bits
Compression mode                         : Lossy
Stream size                              : 397 MiB (5%)
Title                                    : Дублированный
Language                                 : Russian
Default                                  : Yes
Forced                                   : No
Audio #2
ID                                       : 3
Format                                   : AC-3
Format/Info                              : Audio Coding 3
Mode extension                           : CM (complete main)
Codec ID                                 : A_AC3
Duration                                 : 2h 3mn
Bit rate mode                            : Constant
Bit rate                                 : 640 Kbps
Channel(s)                               : 6 channels
Channel positions                        : Front: L C R, Side: L R, LFE
Sampling rate                            : 48.0 KHz
Bit depth                                : 16 bits
Compression mode                         : Lossy
Stream size                              : 567 MiB (7%)
Title                                    : English
Language                                 : English
Default                                  : No
Forced                                   : No
Text #1
ID                                       : 4
Format                                   : UTF-8
Codec ID                                 : S_TEXT/UTF8
Codec ID/Info                            : UTF-8 Plain Text
Title                                    : Full
Language                                 : English
Default                                  : No
Forced                                   : No
Text #2
ID                                       : 5
Format                                   : UTF-8
Codec ID                                 : S_TEXT/UTF8
Codec ID/Info                            : UTF-8 Plain Text
Title                                    : Full
Language                                 : Russian
Default                                  : No
Forced                                   : No
Menu
00:00:00.000                             : en:00:00:00.000
00:07:29.616                             : en:00:07:29.616
00:11:43.369                             : en:00:11:43.369
00:21:02.136                             : en:00:21:02.136
00:27:33.861                             : en:00:27:33.861
00:34:23.561                             : en:00:34:23.561
00:40:06.946                             : en:00:40:06.946
00:43:47.166                             : en:00:43:47.166
00:47:42.651                             : en:00:47:42.651
00:50:45.334                             : en:00:50:45.334
00:54:12.583                             : en:00:54:12.583
00:57:08.842                             : en:00:57:08.842
01:00:23.954                             : en:01:00:23.954
01:03:26.052                             : en:01:03:26.052
01:06:52.550                             : en:01:06:52.550
01:10:29.058                             : en:01:10:29.058
01:15:00.621                             : en:01:15:00.621
01:18:49.808                             : en:01:18:49.808
01:22:09.716                             : en:01:22:09.716
01:28:06.615                             : en:01:28:06.615
01:31:40.704                             : en:01:31:40.704
01:34:19.028                             : en:01:34:19.028
01:39:22.039                             : en:01:39:22.039
01:41:38.467                             : en:01:41:38.467
01:47:31.487                             : en:01:47:31.487
01:50:21.698                             : en:01:50:21.698
01:53:50.282                             : en:01:53:50.282
01:57:16.738                             : en:01:57:16.738

Скриншоты

[Профиль] [ЛС]
Кто просматривает тему:

Форум Тема Автор Размер
Фильмы 2011 года Адский мотель / Motel Hell (Кевин Коннор)[1980, ужасы, комедия, HDTVRip] | P2 sergej644 1.47 GB
Фантастика и фэнтези Белянин Андрей, Черная Галина - Детектив из Мокрых Псов 3. Отель «У призрака» (2015) MP3 Swager 419 MB
Научная и техническая литература Котельников В.С. - Большой справочник столяра (2014) FB2 достали все 6 MB
Фильмы (HD Rips | 720p, 1080p) Мотель / The Bag Man (Дэвид Гровик / David Grovic) [2013, США, триллер, криминал, BDRemux 1080p] DVO (den904 & DeadSno) + Original (Eng) + Subs (Rus, Eng) reversefile 29.5 GB
Фильмы (HD Rips | 720p, 1080p) Мотель / The Bag Man (Дэвид Гровик / David Grovic) [2013, США, триллер, криминал, BDRip 720p] DVO (den904 & DeadSno) + Original (Eng) + Subs (Rus, Eng) reversefile 5.15 GB
Фильмы 2014 года Мотель / The Bag Man (Дэвид Гровик / David Grovic) [2014, США, триллер, криминал, BDRip] MVO + Sub Rus, eng + Original Eng TorrentFilm 1.76 GB
Фильмы 2014 года Мотель / Сумка / The Bag Man (Дэвид Гровик) [2014 г., триллер, криминал, HDRip] BOSS 1.46 GB
Зарубежные сериалы Мотель Бейтс / Bates Motel [S01] (2013) WEB-DLRip 720p. | Первый канал Белочка 12.52 GB
Показать сообщения:    

Текущее время: Сегодня 09:58

Часовой пояс: GMT



Вы не можете начинать темы
Вы не можете отвечать на сообщения
Вы не можете редактировать свои сообщения
Вы не можете удалять свои сообщения
Вы не можете голосовать в опросах
Вы не можете прикреплять файлы к сообщениям
Вы не можете скачивать файлы