Отель для собак / Hotel for Dogs (2009) BDRemux 1080p | NOR Transfer | D, P2

 
Автор Сообщение

Russian Mafia ®

Пол:

Стаж: 2 года 3 месяца

Сообщений: 4249



Награды: 10 (Подробнее)

Mega Seeder 4 (Количество: 1) Top Releaser 4 (Количество: 1) Top Releaser 3 (Количество: 1)
Торрент-статистика

Создавать темы 03-Июн-2016 06:19

[Цитировать]

Информация о фильме
Название: Отель для собак
Оригинальное название: Hotel for Dogs
Год выхода: 2009
Жанр: Комедия, семейный, приключения
Режиссёр: Тор Фреденталь
В ролях: Эмма Робертс, Джейк Т. Остин, Дон Чидл, Джонни Симмонс, Кайла Прэтт, Трой Джентиле, Лиза Кудроу, Кевин Диллон, Аджай Найду, Эрик Эдельстейн
О фильме:
Фильм рассказывает о двух сиротах Энди и Брюсе, которые любят своего пса Пятницу, и идут ради добычи денег на различные преступления типа продажи камня выдаваемого за мобильный телефон, потому что их опекуны из числа не лучших родителей. И получив свои двадцать долларов спешат купить еды своему любимому псу. Однажды скрываясь от полиции, они попадают в заброшенный отель где помимо них ещё несколько собак, которые являются уже старыми обитателями этого помещения. Брат и сестра решают ухаживать за животными. Через несколько дней к ним присоединяются ещё несколько ребят, которые тоже горят желанием следить за собаками. Но всё было бы хорошо, если бы не различные действия ребят направленные на спасение собак, которые раздражают полицию, людей, службы по отлову собак.

Страна: США, Cold Spring Pictures
Продолжительность: 01:39:59
Перевод: Дублированный (ст. "Пифагор"), профессиональный двухголосый
Оригинальная аудио-дорожка: Английская
Файл
Формат: MKV
Кодек: MPEG-4 AVC
Качество: BDRemux 1080p [Исходник: Hotel for Dogs 2009 1080p NOR Blu-ray AVC TrueHD 5.1-RVL]
Видео: MPEG-4 AVC Video 30759 kbps 1080p / 23,976 fps / 16:9 / High Profile 4.1
Аудио #1: Dolby Digital Audio Russian 5.1 / 48 kHz / 448 kbps | DUB [ст. "Пифагор"]
Аудио #2: Dolby Digital Audio Russian 5.1 / 48 kHz / 448 kbps | DVO
Аудио #3: English / DTS-HD Master Audio / 5.1 / 48 kHz / ~3469 kbps / 24-bit (DTS Core: 5.1 / 48 kHz / 768 kbps / 24-bit) - Оригинал
Субтитры: Русские, английские (полные, SDH) softsub (SRT)
Навигация по главам: Есть

MediaInfo

General
Complete name : Hotel.for.Dogs.2009.BDRemux.1080p.mkv
Format : Matroska
File size : 24.5 GiB
Duration : 1h 39mn
Overall bit rate : 35.1 Mbps
Encoded date : UTC 2013-07-15 18:53:06
Writing application : mkvmerge v4.9.1 ('Ich will') сборка от Jul 11 2011 23:53:15
Writing library : libebml v1.2.1 + libmatroska v1.1.1
Video
ID : 1
Format : AVC
Format/Info : Advanced Video Codec
Format profile : High@L4.1
Format settings, CABAC : Yes
Format settings, ReFrames : 3 frames
Muxing mode : Container profile=Unknown@4.1
Codec ID : V_MPEG4/ISO/AVC
Duration : 1h 39mn
Bit rate mode : Variable
Maximum bit rate : 38.0 Mbps
Width : 1 920 pixels
Height : 1 080 pixels
Display aspect ratio : 16:9
Frame rate : 23.976 fps
Standard : NTSC
Color space : YUV
Chroma subsampling : 4:2:0
Bit depth : 8 bits
Scan type : Progressive
Title : Hotel for Dogs 2009 1080p NOR Blu-ray AVC TrueHD 5.1-RVL
Language : English
Audio #1
ID : 2
Format : AC-3
Format/Info : Audio Coding 3
Mode extension : CM (complete main)
Codec ID : A_AC3
Duration : 1h 39mn
Bit rate mode : Constant
Bit rate : 448 Kbps
Channel(s) : 6 channels
Channel positions : Front: L C R, Side: L R, LFE
Sampling rate : 48.0 KHz
Bit depth : 16 bits
Stream size : 320 MiB (1%)
Title : Дубляж
Language : Russian
Audio #2
ID : 3
Format : AC-3
Format/Info : Audio Coding 3
Mode extension : CM (complete main)
Codec ID : A_AC3
Duration : 1h 39mn
Bit rate mode : Constant
Bit rate : 448 Kbps
Channel(s) : 6 channels
Channel positions : Front: L C R, Side: L R, LFE
Sampling rate : 48.0 KHz
Bit depth : 16 bits
Stream size : 320 MiB (1%)
Title : DVO
Language : Russian
Audio #3
ID : 4
Format : DTS
Format/Info : Digital Theater Systems
Format profile : MA
Codec ID : A_DTS
Duration : 1h 39mn
Bit rate mode : Variable
Channel(s) : 6 channels
Channel positions : Front: L C R, Side: L R, LFE
Sampling rate : 48.0 KHz
Bit depth : 24 bits
Language : English
Text #1
ID : 5
Format : UTF-8
Codec ID : S_TEXT/UTF8
Codec ID/Info : UTF-8 Plain Text
Language : Russian
Text #2
ID : 6
Format : UTF-8
Codec ID : S_TEXT/UTF8
Codec ID/Info : UTF-8 Plain Text
Title : full
Language : English
Text #3
ID : 7
Format : UTF-8
Codec ID : S_TEXT/UTF8
Codec ID/Info : UTF-8 Plain Text
Title : SDH
Language : English
Text #4
ID : 8
Format : UTF-8
Codec ID : S_TEXT/UTF8
Codec ID/Info : UTF-8 Plain Text
Title : commentary with Тhоr Frеudеnthal & Еmma Rоbеrts
Language : English
Menu
00:00:00.000 : en:00:00:00.000
00:04:12.961 : en:00:04:12.961
00:07:48.385 : en:00:07:48.385
00:14:47.053 : en:00:14:47.053
00:20:36.569 : en:00:20:36.569
00:27:26.144 : en:00:27:26.144
00:33:09.196 : en:00:33:09.196
00:39:19.566 : en:00:39:19.566
00:46:31.247 : en:00:46:31.247
00:53:08.435 : en:00:53:08.435
00:59:30.108 : en:00:59:30.108
01:05:03.233 : en:01:05:03.233
01:10:21.092 : en:01:10:21.092
01:18:32.166 : en:01:18:32.166
01:24:43.161 : en:01:24:43.161
01:33:53.878 : en:01:33:53.878

Скриншоты



Релиз от: Тарантиныч
[Профиль] [ЛС]
Кто просматривает тему:

Форум Тема Автор Размер
Отечественные cериалы Отель Элеон [01-21 из 21] (2016) SATRip Pensioner 7.14 GB
Показать сообщения:    

Текущее время: Сегодня 09:05

Часовой пояс: GMT



Вы не можете начинать темы
Вы не можете отвечать на сообщения
Вы не можете редактировать свои сообщения
Вы не можете удалять свои сообщения
Вы не можете голосовать в опросах
Вы не можете прикреплять файлы к сообщениям
Вы не можете скачивать файлы