Отель «Гранд Будапешт» / The Grand Budapest Hotel (2014) BDRip 1080p | D,A

 
Автор Сообщение

sergej644 ®

Пол:

Стаж: 4 года 11 месяцев

Сообщений: 6041

Откуда: Soviet Union



Награды: Нет

Торрент-статистика

Создавать темы 02-Мар-2015 17:22

[Цитировать]

Отель «Гранд Будапешт» / The Grand Budapest Hotel
Русское название: Отель «Гранд Будапешт»
Оригинальное название: The Grand Budapest Hotel
Год выпуска: 2014
Жанр: комедия, детектив, приключения, криминал
Выпущено: Великобритания, Германия, США
Режиссер: Уэс Андерсон / Wes Anderson
В ролях: Рэйф Файнс , Тони Револори , Сирша Ронан , Эдриан Броуди , Уиллем Дефо , Ф. Мюррэй Абрахам , Джуд Лоу , Джефф Голдблюм , Харви Кейтель , Эдвард Нортон , Матьё Амальрик , Том Уилкинсон
Перевод: Дублированный - [Лицензия], Авторский (одноголосый)
Сюжет фильма:
Фильм рассказывает об увлекательных приключениях легендарного консьержа Густава и его юного друга, портье Зеро Мустафы. Сотрудники гостиницы становятся свидетелями кражи и поисков бесценных картин эпохи Возрождения, борьбы за огромное состояние богатой семьи и... драматических изменений в Европе между двумя кровопролитными войнами XX века.

R - Лицам до 17 лет обязательно присутствие взрослого
Качество: BDRip 1080p (исходник Blu-ray)
Формат: AVC (библиотека кодирования x.264)
Контейнер (Расширение): MKV
Видео: 1920x1034 (1.857), 13500 Кбит/сек, 23,976 кадр/сек, 0,284 Бит/[Пиксели*Кадры]
Аудио №1: русский / AC3 / 5.1 / 48 kHz / 448 kbps / |Дублированный|
Аудио №2: русский / AC3 / 5.1 / 48 kHz / 640 kbps / |Авторский, Ю. Сербин|
Аудио №3: русский / AC3 / 5.1 / 48 kHz / 640 kbps / |Авторский, А. Матвеев (Doctor_Joker)|
Аудио №4: русский / AC3 / 5.1 / 48 kHz / 640 kbps / |Авторский, В. Назаров|
Аудио №5: английский / AC3 / 5.1 / 48 kHz / 640 kbps /
Субтитры: русские (Forced), русские (Full), русские (Full, А. Матвеев (Doctor_Joker)), украинские (Ukrainian), английские (Forced), английские (Full), английские (SDH)
Навигация по главам(Чаптеры): есть
Продолжительность: 01:39:55

Знаете ли вы, что...

Уэс Андерсон снял фильм в трех различных соотношениях сторон: 1,33, 1,85 и 2,35:1, которые соответствуют трём разным отрезкам времени. Разные пропорции кадра подсказывают зрителям, какой временной период на экране.
В качестве декорации отеля «Гранд Будапешт» Уэс Андерсон использовал старый и выполненный в стиле ар-деко универмаг Karstadt, расположенный в Саксонии, в городке Герлиц, что на границе Германии, Чехии и Польши.
На главную роль первоначально был утвержден Джонни Депп, но позже он выбыл из проекта.
Имя персонажа Билла Мюррея можно прочитать по-венгерски как «Mi Van?», что означает «Что происходит?».
Тильду Суинтон гримировали по несколько часов, чтобы она приняла образ 84-летней вдовы.
Анджела Лэнсбери могла сыграть роль в этом фильме, но отказалась из-за несогласованности рабочих графиков, и ее роль отошла Тильде Суинтон.
Джефф Голдблюм играет Ковача. Ранее в фильме «Эрни Ковач: Кроме шуток» (1984) он исполнял роль комика Эрни Ковача.
Заснеженные горы на фоне в сцене свадьбы - это так называемая Саксонская Швейцария, германская часть Эльбских Песчаниковых гор.
В сцене когда Агата в спальне разговаривает с Зеро, бретелька ее ночной рубашки в одном кадре спадает с плеча, а в следующем уже на плече.
Когда в поезде Хенкельс подает Густаву временное разрешение для Зеро, на общем плане один край листка бумаги согнут, на крупном плане - лист гладкий.

MediaInfo

Format : Matroska
Format version : Version 2
File size : 11.5 GiB
Duration : 1h 39mn
Overall bit rate : 16.5 Mbps
Movie name : Otel' «Grand Budapesht».(2014).BDRip.1080p.[denis100]
Encoded date : UTC 2015-03-02 13:43:47
Writing application : mkvmerge v5.8.0 ('No Sleep / Pillow') built on Sep 2 2012 15:37:04
Writing library : libebml v1.2.3 + libmatroska v1.3.0
Video
ID : 1
Format : AVC
Format/Info : Advanced Video Codec
Format profile : High@L4.1
Format settings, CABAC : Yes
Format settings, ReFrames : 4 frames
Codec ID : V_MPEG4/ISO/AVC
Duration : 1h 39mn
Bit rate : 13.5 Mbps
Width : 1 920 pixels
Height : 1 034 pixels
Display aspect ratio : 1.857
Frame rate : 23.976 fps
Color space : YUV
Chroma subsampling : 4:2:0
Bit depth : 8 bits
Scan type : Progressive
Bits/(Pixel*Frame) : 0.284
Stream size : 9.19 GiB (80%)
Title : Otel' «Grand Budapesht».(2014).BDRip.1080p.[denis100]
Writing library : x264 core 144 r2525 40bb568
Encoding settings : cabac=1 / ref=4 / deblock=1:-3:-3 / analyse=0x3:0x133 / me=umh / subme=11 / psy=1 / psy_rd=1.00:0.00 / mixed_ref=1 / me_range=32 / chroma_me=1 / trellis=2 / 8x8dct=1 / cqm=0 / deadzone=21,11 / fast_pskip=0 / chroma_qp_offset=-2 / threads=6 / lookahead_threads=1 / sliced_threads=0 / nr=0 / decimate=1 / interlaced=0 / bluray_compat=0 / constrained_intra=0 / bframes=10 / b_pyramid=2 / b_adapt=2 / b_bias=0 / direct=3 / weightb=1 / open_gop=0 / weightp=2 / keyint=240 / keyint_min=23 / scenecut=40 / intra_refresh=0 / rc=2pass / mbtree=0 / bitrate=13500 / ratetol=1.0 / qcomp=0.60 / qpmin=0 / qpmax=69 / qpstep=4 / cplxblur=20.0 / qblur=0.5 / ip_ratio=1.40 / pb_ratio=1.30 / aq=1:1.00
Language : English
Default : Yes
Forced : No
Audio #1
ID : 2
Format : AC-3
Format/Info : Audio Coding 3
Mode extension : CM (complete main)
Codec ID : A_AC3
Duration : 1h 39mn
Bit rate mode : Constant
Bit rate : 448 Kbps
Channel(s) : 6 channels
Channel positions : Front: L C R, Side: L R, LFE
Sampling rate : 48.0 KHz
Bit depth : 16 bits
Compression mode : Lossy
Stream size : 320 MiB (3%)
Title : Дублированный
Language : Russian
Default : Yes
Forced : No
Audio #2
ID : 3
Format : AC-3
Format/Info : Audio Coding 3
Mode extension : CM (complete main)
Codec ID : A_AC3
Duration : 1h 39mn
Bit rate mode : Constant
Bit rate : 640 Kbps
Channel(s) : 6 channels
Channel positions : Front: L C R, Side: L R, LFE
Sampling rate : 48.0 KHz
Bit depth : 16 bits
Compression mode : Lossy
Stream size : 457 MiB (4%)
Title : Авторский, Ю. Сербин
Language : Russian
Default : No
Forced : No
Audio #3
ID : 4
Format : AC-3
Format/Info : Audio Coding 3
Mode extension : CM (complete main)
Codec ID : A_AC3
Duration : 1h 39mn
Bit rate mode : Constant
Bit rate : 640 Kbps
Channel(s) : 6 channels
Channel positions : Front: L C R, Side: L R, LFE
Sampling rate : 48.0 KHz
Bit depth : 16 bits
Compression mode : Lossy
Stream size : 457 MiB (4%)
Title : Авторский, А. Матвеев (Doctor_Joker)
Language : Russian
Default : No
Forced : No
Audio #4
ID : 5
Format : AC-3
Format/Info : Audio Coding 3
Mode extension : CM (complete main)
Codec ID : A_AC3
Duration : 1h 39mn
Bit rate mode : Constant
Bit rate : 640 Kbps
Channel(s) : 6 channels
Channel positions : Front: L C R, Side: L R, LFE
Sampling rate : 48.0 KHz
Bit depth : 16 bits
Compression mode : Lossy
Stream size : 457 MiB (4%)
Title : Авторский, В. Назаров
Language : Russian
Default : No
Forced : No
Audio #5
ID : 6
Format : AC-3
Format/Info : Audio Coding 3
Mode extension : CM (complete main)
Codec ID : A_AC3
Duration : 1h 39mn
Bit rate mode : Constant
Bit rate : 640 Kbps
Channel(s) : 6 channels
Channel positions : Front: L C R, Side: L R, LFE
Sampling rate : 48.0 KHz
Bit depth : 16 bits
Compression mode : Lossy
Stream size : 457 MiB (4%)
Title : English
Language : English
Default : No
Forced : No
Text #1
ID : 7
Format : UTF-8
Codec ID : S_TEXT/UTF8
Codec ID/Info : UTF-8 Plain Text
Title : Forced
Language : Russian
Default : Yes
Forced : No
Text #2
ID : 8
Format : UTF-8
Codec ID : S_TEXT/UTF8
Codec ID/Info : UTF-8 Plain Text
Title : Full
Language : Russian
Default : No
Forced : No
Text #3
ID : 9
Format : UTF-8
Codec ID : S_TEXT/UTF8
Codec ID/Info : UTF-8 Plain Text
Title : Full, А. Матвеев (Doctor_Joker)
Language : Russian
Default : No
Forced : No
Text #4
ID : 10
Format : UTF-8
Codec ID : S_TEXT/UTF8
Codec ID/Info : UTF-8 Plain Text
Title : Ukrainian
Language : Ukrainian
Default : No
Forced : No
Text #5
ID : 11
Format : UTF-8
Codec ID : S_TEXT/UTF8
Codec ID/Info : UTF-8 Plain Text
Title : Forced
Language : English
Default : No
Forced : No
Text #6
ID : 12
Format : UTF-8
Codec ID : S_TEXT/UTF8
Codec ID/Info : UTF-8 Plain Text
Title : Full
Language : English
Default : No
Forced : No
Text #7
ID : 13
Format : UTF-8
Codec ID : S_TEXT/UTF8
Codec ID/Info : UTF-8 Plain Text
Title : SDH
Language : English
Default : No
Forced : No
Menu
00:00:00.000 : en:00:00:00.000
00:02:55.884 : en:00:02:55.884
00:06:00.151 : en:00:06:00.151
00:08:28.132 : en:00:08:28.133
00:11:32.608 : en:00:11:32.609
00:14:17.189 : en:00:14:17.190
00:17:39.600 : en:00:17:39.600
00:19:56.236 : en:00:19:56.237
00:23:08.803 : en:00:23:08.804
00:25:35.408 : en:00:25:35.409
00:29:30.310 : en:00:29:30.310
00:32:11.762 : en:00:32:11.763
00:34:16.262 : en:00:34:16.262
00:35:51.649 : en:00:35:51.649
00:38:58.043 : en:00:38:58.044
00:40:18.832 : en:00:40:18.833
00:41:43.792 : en:00:41:43.793
00:45:22.761 : en:00:45:22.761
00:48:22.649 : en:00:48:22.649
00:51:53.026 : en:00:51:53.026
00:55:18.273 : en:00:55:18.273
00:59:08.544 : en:00:59:08.545
01:04:17.019 : en:01:04:17.020
01:08:34.985 : en:01:08:34.986
01:12:20.460 : en:01:12:20.461
01:16:18.907 : en:01:16:18.907
01:17:41.489 : en:01:17:41.490
01:20:47.800 : en:01:20:47.801
01:24:02.370 : en:01:24:02.370
01:27:08.556 : en:01:27:08.556
01:30:55.908 : en:01:30:55.908
01:32:57.363 : en:01:32:57.363

Скриншоты

[Профиль] [ЛС]
Кто просматривает тему:

Форум Тема Автор Размер
Фильмы 2011 года Адский мотель / Motel Hell (Кевин Коннор)[1980, ужасы, комедия, HDTVRip] | P2 sergej644 1.47 GB
Фантастика и фэнтези Белянин Андрей, Черная Галина - Детектив из Мокрых Псов 3. Отель «У призрака» (2015) MP3 Swager 419 MB
Научная и техническая литература Котельников В.С. - Большой справочник столяра (2014) FB2 достали все 6 MB
Фильмы (HD Rips | 720p, 1080p) Мотель / The Bag Man (Дэвид Гровик / David Grovic) [2013, США, триллер, криминал, BDRemux 1080p] DVO (den904 & DeadSno) + Original (Eng) + Subs (Rus, Eng) reversefile 29.5 GB
Фильмы (HD Rips | 720p, 1080p) Мотель / The Bag Man (Дэвид Гровик / David Grovic) [2013, США, триллер, криминал, BDRip 720p] DVO (den904 & DeadSno) + Original (Eng) + Subs (Rus, Eng) reversefile 5.15 GB
Фильмы 2014 года Мотель / The Bag Man (Дэвид Гровик / David Grovic) [2014, США, триллер, криминал, BDRip] MVO + Sub Rus, eng + Original Eng TorrentFilm 1.76 GB
Фильмы 2014 года Мотель / Сумка / The Bag Man (Дэвид Гровик) [2014 г., триллер, криминал, HDRip] BOSS 1.46 GB
Зарубежные сериалы Мотель Бейтс / Bates Motel [S01] (2013) WEB-DLRip 720p. | Первый канал Белочка 12.52 GB
Показать сообщения:    

Текущее время: Сегодня 12:50

Часовой пояс: GMT



Вы не можете начинать темы
Вы не можете отвечать на сообщения
Вы не можете редактировать свои сообщения
Вы не можете удалять свои сообщения
Вы не можете голосовать в опросах
Вы не можете прикреплять файлы к сообщениям
Вы не можете скачивать файлы