Отель «Гранд Будапешт» / The Grand Budapest Hotel (Уэс Андерсон / Wes Anderson) [2014, Великобритания, Германия, Комедия, детектив, криминал, BDRip-AVC] VO (Матвеев) + Sub Rus, Eng + Original Eng

 
Автор Сообщение

Создавать темы 14-Июл-2014 09:07

Отель «Гранд Будапешт» / The Grand Budapest Hotel
Страна: Великобритания, Германия
Жанр: комедия, детектив, криминал
Год выпуска: 2014
Продолжительность: 01:39:55
Перевод: Одноголосый закадровый - Алексей "Doctor_Joker" Матвеев
Cубтитры: русские (перевод Алексея Матвеева), английские
Оригинальная аудиодорожка: английский
Режиссер: Уэс Андерсон / Wes Anderson
В ролях: Рэйф Файнс (M. Gustave), Тони Револори (Zero), Сирша Ронан (Agatha), Эдриан Броуди (Dmitri), Уиллем Дефо (Jopling), Ф. Мюррэй Абрахам (Mr. Moustafa), Джуд Лоу (Young Writer), Эдвард Нортон (Henckels), Джефф Голдблюм (Deputy Kovacs), Харви Кейтель (Ludwig), Том Уилкинсон (Author), Матье Амальрик (Serge X.) и др.
Описание:
Очередной шедевр Уэса Андерсона про милый рафинированный мирок республики Зубровка, в которой есть чудесный отель "Гранд Будапешт". Там работает мсье Густав Х., а помощником у него выступает иммигрант по имени Зеро. Зеро во всём - опыт работы, образование, даже семья... Но эти двое удивительно хорошо срабатываются и это прекрасно помогает им в ходе дальнейшей кавалькады событий, где есть место и таинственному убийству, и заговорам, и даже тюремному заключению. А рассказывает обо всём об этом - национальное достояние бывшей республики, Автор. Молодой и старый.
Уэс Андерсон в самом лучшем своём проявлении. К просмотру - обязательно.
На Берлинском кинофестивале фильм получил "Серебряного Медведя". (с) Алексей Матвеев
Доп. информация:
Перевод Алексея Матвеева доступен благодаря будулайроманову, работа со звуком - Переводман.

Файл:
Качество видео: BDRip-AVC, взят тут.
Формат видео: MKV
Видео: 1120x606 (1,85:1), 2360 kbps, 23.976 fps, 0.145 bit/pixel
Аудио 1: 48 kHz, AC3 Dolby Digital, 3/2 (L,C,R,l,r) + LFE ch, 384.00 kbps - Матвеев
Аудио 2: 48 kHz, AC3 Dolby Digital, 3/2 (L,C,R,l,r) + LFE ch, 384.00 kbps - Eng
Формат субтитров: softsub (SRT)

MediaInfo

Общее
Уникальный идентификатор : 209757921530479943018108771262024668179 (0x9DCDE7FDB1684FC1B1FC527E96285413)
Формат : Matroska
Версия формата : Version 2
Размер файла : 2,18 Гбайт
Продолжительность : 1 ч. 39 м.
Общий поток : 3127 Кбит/сек
Дата кодирования : UTC 2014-06-12 06:12:04
Программа кодирования : mkvmerge v2.9.7 ('Tenderness') built on Jul 1 2009 18:43:35
Библиотека кодирования : libebml v0.7.7 + libmatroska v0.8.1
Видео
Идентификатор : 1
Формат : AVC
Формат/Информация : Advanced Video Codec
Профиль формата : High@L4.1
Параметр CABAC формата : Да
Параметр ReFrames формата : 12 кадров
Идентификатор кодека : V_MPEG4/ISO/AVC
Продолжительность : 1 ч. 39 м.
Битрейт : 2360 Кбит/сек
Ширина : 1120 пикселей
Высота : 606 пикселей
Соотношение сторон : 1,85:1
Режим частоты кадров : Постоянный
Частота кадров : 23,976 кадра/сек
Цветовое пространство : YUV
Субдискретизация насыщенности : 4:2:0
Битовая глубина : 8 бит
Тип развёртки : Прогрессивная
Бит/(Пиксели*Кадры) : 0.145
Размер потока : 1,60 Гбайт (73%)
Библиотека кодирования : x264 core 140 r2377 1ca7bb9
Настройки программы : cabac=1 / ref=12 / deblock=1:-2:-1 / analyse=0x3:0x133 / me=umh / subme=11 / psy=1 / psy_rd=1.00:0.05 / mixed_ref=1 / me_range=32 / chroma_me=1 / trellis=2 / 8x8dct=1 / cqm=0 / deadzone=21,11 / fast_pskip=0 / chroma_qp_offset=-3 / threads=12 / lookahead_threads=2 / sliced_threads=0 / nr=0 / decimate=1 / interlaced=0 / bluray_compat=0 / constrained_intra=0 / bframes=8 / b_pyramid=2 / b_adapt=2 / b_bias=0 / direct=3 / weightb=1 / open_gop=0 / weightp=2 / keyint=250 / keyint_min=23 / scenecut=40 / intra_refresh=0 / rc_lookahead=60 / rc=2pass / mbtree=1 / bitrate=2360 / ratetol=1.0 / qcomp=0.60 / qpmin=0 / qpmax=69 / qpstep=4 / cplxblur=20.0 / qblur=0.5 / ip_ratio=1.40 / aq=1:1.00
Язык : English
Default : Да
Forced : Нет
Аудио #1
Идентификатор : 2
Формат : AC-3
Формат/Информация : Audio Coding 3
Расширение режима : CM (complete main)
Параметр Endianness формата : Big
Идентификатор кодека : A_AC3
Продолжительность : 1 ч. 39 м.
Вид битрейта : Постоянный
Битрейт : 384 Кбит/сек
Каналы : 6 каналов
Расположение каналов : Front: L C R, Side: L R, LFE
Частота : 48,0 КГц
Битовая глубина : 16 бит
Метод сжатия : С потерями
Размер потока : 274 Мбайт (12%)
Заголовок : Матвеев
Язык : Russian
Default : Да
Forced : Нет
Аудио #2
Идентификатор : 3
Формат : AC-3
Формат/Информация : Audio Coding 3
Расширение режима : CM (complete main)
Параметр Endianness формата : Big
Идентификатор кодека : A_AC3
Продолжительность : 1 ч. 39 м.
Вид битрейта : Постоянный
Битрейт : 384 Кбит/сек
Каналы : 6 каналов
Расположение каналов : Front: L C R, Side: L R, LFE
Частота : 48,0 КГц
Битовая глубина : 16 бит
Метод сжатия : С потерями
Размер потока : 274 Мбайт (12%)
Заголовок : Original
Язык : English
Default : Нет
Forced : Нет
Текст #1
Идентификатор : 4
Формат : UTF-8
Идентификатор кодека : S_TEXT/UTF8
Идентификатор кодека/Информация : UTF-8 Plain Text
Заголовок : Матвеев
Язык : Russian
Default : Да
Forced : Нет
Текст #2
Идентификатор : 5
Формат : UTF-8
Идентификатор кодека : S_TEXT/UTF8
Идентификатор кодека/Информация : UTF-8 Plain Text
Заголовок : Full
Язык : English
Default : Нет
Forced : Нет
Меню
00:00:00.000 : en:00:00:00.000
00:02:55.884 : en:00:02:55.884
00:06:00.151 : en:00:06:00.151
00:08:28.133 : en:00:08:28.133
00:11:32.609 : en:00:11:32.609
00:14:17.190 : en:00:14:17.190
00:17:39.600 : en:00:17:39.600
00:19:56.237 : en:00:19:56.237
00:23:08.804 : en:00:23:08.804
00:25:35.409 : en:00:25:35.409
00:29:30.310 : en:00:29:30.310
00:32:11.763 : en:00:32:11.763
00:34:16.262 : en:00:34:16.262
00:35:51.649 : en:00:35:51.649
00:38:58.044 : en:00:38:58.044
00:40:18.833 : en:00:40:18.833
00:41:43.793 : en:00:41:43.793
00:45:22.761 : en:00:45:22.761
00:48:22.649 : en:00:48:22.649
00:51:53.026 : en:00:51:53.026
00:55:18.273 : en:00:55:18.273
00:59:08.545 : en:00:59:08.545
01:04:17.020 : en:01:04:17.020
01:08:34.986 : en:01:08:34.986
01:12:20.461 : en:01:12:20.461
01:16:18.907 : en:01:16:18.907
01:17:41.490 : en:01:17:41.490
01:20:47.801 : en:01:20:47.801
01:24:02.370 : en:01:24:02.370
01:27:08.556 : en:01:27:08.556
01:30:55.908 : en:01:30:55.908
01:32:57.363 : en:01:32:57.363

Скриншот c названием фильма

Скриншоты

 
Кто просматривает тему:

Форум Тема Автор Размер
Фильмы 2011 года Адский мотель / Motel Hell (Кевин Коннор)[1980, ужасы, комедия, HDTVRip] | P2 sergej644 1.47 GB
Фантастика и фэнтези Белянин Андрей, Черная Галина - Детектив из Мокрых Псов 3. Отель «У призрака» (2015) MP3 Swager 419 MB
Научная и техническая литература Котельников В.С. - Большой справочник столяра (2014) FB2 достали все 6 MB
Фильмы (HD Rips | 720p, 1080p) Мотель / The Bag Man (Дэвид Гровик / David Grovic) [2013, США, триллер, криминал, BDRemux 1080p] DVO (den904 & DeadSno) + Original (Eng) + Subs (Rus, Eng) reversefile 29.5 GB
Фильмы (HD Rips | 720p, 1080p) Мотель / The Bag Man (Дэвид Гровик / David Grovic) [2013, США, триллер, криминал, BDRip 720p] DVO (den904 & DeadSno) + Original (Eng) + Subs (Rus, Eng) reversefile 5.15 GB
Фильмы 2014 года Мотель / The Bag Man (Дэвид Гровик / David Grovic) [2014, США, триллер, криминал, BDRip] MVO + Sub Rus, eng + Original Eng TorrentFilm 1.76 GB
Фильмы 2014 года Мотель / Сумка / The Bag Man (Дэвид Гровик) [2014 г., триллер, криминал, HDRip] BOSS 1.46 GB
Зарубежные сериалы Мотель Бейтс / Bates Motel [S01] (2013) WEB-DLRip 720p. | Первый канал Белочка 12.52 GB
Показать сообщения:    

Текущее время: Сегодня 22:28

Часовой пояс: GMT



Вы не можете начинать темы
Вы не можете отвечать на сообщения
Вы не можете редактировать свои сообщения
Вы не можете удалять свои сообщения
Вы не можете голосовать в опросах
Вы не можете прикреплять файлы к сообщениям
Вы не можете скачивать файлы