Отель «Гранд Будапешт» / The Grand Budapest Hotel (Уэс Андерсон / Wes Anderson) [2014, Великобритания, Германия, комедия, детектив, приключения, криминал, BDRip-AVC] [Локализованный видеоряд] Dub + Original (Eng) + Sub (Rus, Eng)

 
Автор Сообщение

Создавать темы 13-Июл-2014 16:36

Отель «Гранд Будапешт»The Grand Budapest Hotel Год выпуска: 2014
Страна: Великобритания, Германия
Жанр: комедия, детектив, приключения, криминал
Продолжительность: 01:39:54
Перевод: профессиональный полное дублирование Blu-ray CEE
Оригинал : английский
Cубтитры: русские, английские (полные и форсированные) softsub (SRT)-Режиссёр: Уэс Андерсон / Wes Anderson-В ролях:
Рэйф Файнс, Уиллем Дефо, Эдриан Броуди, Сирша Ронан, Джуд Лоу, Харви Кейтель, Эдвард Нортон, Тони Револори, Тильда Суинтон, Оуэн Уилсон, Билл Мюррей, Ф. Мюррэй Абрахам, Джефф Голдблюм, Том Уилкинсон, Матье Амальрик, Леа Сейду, Джейсон Шварцман, Ларри Пайн, Джизельда Володи, Флориан Лукас, Карл Маркович, Фолькер Михаловски, Боб Бэлабан, Фишер Стивенс, Уоллес Володарски, Варис Ахлувалиа-Описание:
Фильм рассказывает об увлекательных приключениях легендарного консьержа Густава и его юного друга, портье Зеро Мустафы. Сотрудники гостиницы становятся свидетелями кражи и поисков бесценных картин эпохи Возрождения, борьбы за огромное состояние богатой семьи и… драматических изменений в Европе между двумя кровопролитными войнами XX века.-
  • Тильду Суинтон гримировали по несколько часов, чтобы она приняла образ 84-летней вдовы.
  • Имя персонажа Билла Мюррея можно прочитать по-венгерски как «Mi Van?», что означает «Что происходит?».
  • На главную роль первоначально был утвержден Джонни Депп, но позже он выбыл из проекта.
  • Анджела Лэнсбери могла сыграть роль в этом фильме, но отказалась из-за несогласованности рабочих графиков, и ее роль отошла Тильде Суинтон.
  • Джефф Голдблюм играет Ковача. Ранее в фильме «Эрни Ковач: Кроме шуток» (1984) он исполнял роль комика Эрни Ковача.
  • В качестве декорации отеля «Гранд Будапешт» Уэс Андерсон использовал старый и выполненный в стиле ар-деко универмаг Karstadt, расположенный в Саксонии, в городке Герлиц, что на границе Германии, Чехии и Польши.
  • Заснеженные горы на фоне в сцене свадьбы — это так называемая Саксонская Швейцария, германская часть Эльбских Песчаниковых гор.
-Награды:
Берлинский кинофестиваль, 2014 год
Победитель: Серебряный Медведь - Гран-при жюри

Номинации: Золотой Медведь
-IMDB: 8.3/10 (85 302 votes) Тор 250: 127
Кинопоиск: 8.296 (35 803) Тор 250: 104- -Сэмпл--Качество видео: BDRip-AVC
Формат: MKV
Видео кодек: H.264
Аудио кодек: AC3
Видео: 1008 x 544 (1.85 :1), 23.976 fps, 1323 Кбит/сек, 0.10 bit/pixel
Аудио 1: 48 kHz, AC3 Dolby Digital, 3/2 (L,C,R,l,r) + LFE ch, ~384 kbps дубляж
Аудио 2: 48 kHz, AC3 Dolby Digital, 3/2 (L,C,R,l,r) + LFE ch, ~384 kbps оригинал

Скриншоты



Сравненияс [url=http://torrentfilm.net/forum/viewtopic.php?t=4757020][i][b][color=brown]релизом[/color][/b][/i][/url] [i][size=9][font="Georgia

http://screenshotcomparison.com/comparison/78890MediaInfo | x264x264"]
x264 [info]: frame I:1248 Avg QP:12.15 size: 76252
x264 [info]: frame P:26159 Avg QP:17.51 size: 16289
x264 [info]: frame B:116329 Avg QP:18.18 size: 4040
x264 [info]: consecutive B-frames: 1.5% 1.2% 3.8% 12.2% 12.9% 42.4% 8.1% 5.9% 2.6% 5.0% 2.1% 0.5%
x264 [info]: mb I I16..4: 25.9% 47.9% 26.2%
x264 [info]: mb P I16..4: 0.5% 3.0% 0.7% P16..4: 24.0% 24.2% 11.8% 2.3% 0.4% skip:33.2%
x264 [info]: mb B I16..4: 0.0% 0.2% 0.0% B16..8: 21.1% 11.4% 2.2% direct: 2.6% skip:62.5% L0:44.1% L1:43.7% BI:12.2%
x264 [info]: 8x8 transform intra:60.6% inter:49.0%
x264 [info]: direct mvs spatial:98.6% temporal:1.4%
x264 [info]: coded y,uvDC,uvAC intra: 73.0% 70.6% 57.9% inter: 11.7% 8.1% 4.0%
x264 [info]: i16 v,h,dc,p: 80% 6% 8% 6%
x264 [info]: i8 v,h,dc,ddl,ddr,vr,hd,vl,hu: 13% 10% 11% 9% 12% 11% 11% 11% 13%
x264 [info]: i4 v,h,dc,ddl,ddr,vr,hd,vl,hu: 18% 12% 14% 7% 10% 10% 10% 9% 11%
x264 [info]: i8c dc,h,v,p: 34% 32% 22% 12%
x264 [info]: Weighted P-Frames: Y:2.8% UV:1.4%
x264 [info]: ref P L0: 47.5% 14.1% 14.2% 6.8% 5.1% 4.0% 3.3% 2.0% 1.6% 1.3% 0.1% 0.0%
x264 [info]: ref B L0: 64.6% 16.3% 7.8% 3.9% 2.8% 2.1% 1.6% 0.6% 0.3%
x264 [info]: ref B L1: 90.1% 9.9%
General
Unique ID : 192854187398359952954645953214089492223 (0x91165D8D8C37C6CA80AD7DBE7FFB76FF)
Complete name : D:\Otel.Grand.Budapesht.2014.BDRip-AVC.mkv
Format : Matroska
Format version : Version 2
File size : 1.46 GiB
Duration : 1h 39mn
Overall bit rate mode : Variable
Overall bit rate : 2 096 Kbps
Encoded date : UTC 2014-06-13 07:27:12
Writing application : mkvmerge v5.8.0 ('No Sleep / Pillow') built on Sep 2 2012 15:37:04
Writing library : libebml v1.2.3 + libmatroska v1.3.0
Video
ID : 1
Format : AVC
Format/Info : Advanced Video Codec
Format profile : High@L4.1
Format settings, CABAC : Yes
Format settings, ReFrames : 10 frames
Codec ID : V_MPEG4/ISO/AVC
Duration : 1h 39mn
Bit rate mode : Variable
Bit rate : 1 323 Kbps
Maximum bit rate : 40.0 Mbps
Width : 1 008 pixels
Height : 544 pixels
Display aspect ratio : 1.853
Frame rate : 23.976 fps
Color space : YUV
Chroma subsampling : 4:2:0
Bit depth : 8 bits
Scan type : Progressive
Bits/(Pixel*Frame) : 0.101
Stream size : 919 MiB (61%)
Writing library : x264 core 138 r2358 9e941d1
Encoding settings : cabac=1 / ref=10 / deblock=1:-2:-2 / analyse=0x3:0x133 / me=umh / subme=11 / psy=1 / psy_rd=1.00:0.00 / mixed_ref=1 / me_range=48 / chroma_me=1 / trellis=2 / 8x8dct=1 / cqm=0 / deadzone=21,11 / fast_pskip=0 / chroma_qp_offset=-2 / threads=6 / lookahead_threads=1 / sliced_threads=0 / nr=0 / decimate=0 / interlaced=0 / bluray_compat=0 / constrained_intra=0 / bframes=11 / b_pyramid=2 / b_adapt=2 / b_bias=0 / direct=3 / weightb=1 / open_gop=0 / weightp=2 / keyint=240 / keyint_min=24 / scenecut=40 / intra_refresh=0 / rc_lookahead=60 / rc=2pass / mbtree=0 / bitrate=1323 / ratetol=1.0 / qcomp=0.70 / qpmin=0 / qpmax=69 / qpstep=4 / cplxblur=20.0 / qblur=0.5 / vbv_maxrate=50000 / vbv_bufsize=62500 / nal_hrd=none / ip_ratio=1.40 / pb_ratio=1.30 / aq=1:0.80
Default : Yes
Forced : No
Audio #1
ID : 2
Format : AC-3
Format/Info : Audio Coding 3
Mode extension : CM (complete main)
Codec ID : A_AC3
Duration : 1h 39mn
Bit rate mode : Constant
Bit rate : 384 Kbps
Channel(s) : 6 channels
Channel positions : Front: L C R, Side: L R, LFE
Sampling rate : 48.0 KHz
Bit depth : 16 bits
Compression mode : Lossy
Stream size : 274 MiB (18%)
Title : Dub
Language : Russian
Default : Yes
Forced : No
Audio #2
ID : 3
Format : AC-3
Format/Info : Audio Coding 3
Mode extension : CM (complete main)
Codec ID : A_AC3
Duration : 1h 39mn
Bit rate mode : Constant
Bit rate : 384 Kbps
Channel(s) : 6 channels
Channel positions : Front: L C R, Side: L R, LFE
Sampling rate : 48.0 KHz
Bit depth : 16 bits
Compression mode : Lossy
Stream size : 274 MiB (18%)
Title : Original
Language : English
Default : No
Forced : No
Text #1
ID : 4
Format : UTF-8
Codec ID : S_TEXT/UTF8
Codec ID/Info : UTF-8 Plain Text
Title : Forced
Language : Russian
Default : Yes
Forced : No
Text #2
ID : 5
Format : UTF-8
Codec ID : S_TEXT/UTF8
Codec ID/Info : UTF-8 Plain Text
Title : Full
Language : Russian
Default : No
Forced : No
Text #3
ID : 6
Format : UTF-8
Codec ID : S_TEXT/UTF8
Codec ID/Info : UTF-8 Plain Text
Title : Full
Language : English
Default : No
Forced : No
Text #4
ID : 7
Format : UTF-8
Codec ID : S_TEXT/UTF8
Codec ID/Info : UTF-8 Plain Text
Title : Forced
Language : English
Default : No
Forced : No
Menu
00:00:00.000 : en:00:00:00.000
00:02:55.884 : en:00:02:55.884
00:06:00.151 : en:00:06:00.151
00:08:28.132 : en:00:08:28.133
00:11:32.608 : en:00:11:32.609
00:14:17.189 : en:00:14:17.190
00:17:39.600 : en:00:17:39.600
00:19:56.236 : en:00:19:56.237
00:23:08.803 : en:00:23:08.804
00:25:35.408 : en:00:25:35.409
00:29:30.310 : en:00:29:30.310
00:32:11.762 : en:00:32:11.763
00:34:16.262 : en:00:34:16.262
00:35:51.649 : en:00:35:51.649
00:38:58.043 : en:00:38:58.044
00:40:18.832 : en:00:40:18.833
00:41:43.792 : en:00:41:43.793
00:45:22.761 : en:00:45:22.761
00:48:22.649 : en:00:48:22.649
00:51:53.026 : en:00:51:53.026
00:55:18.273 : en:00:55:18.273
00:59:08.544 : en:00:59:08.545
01:04:17.019 : en:01:04:17.020
01:08:34.985 : en:01:08:34.986
01:12:20.460 : en:01:12:20.461
01:16:18.907 : en:01:16:18.907
01:17:41.489 : en:01:17:41.490
01:20:47.800 : en:01:20:47.801
01:24:02.370 : en:01:24:02.370
01:27:08.556 : en:01:27:08.556
01:30:55.908 : en:01:30:55.908
01:32:57.363 : en:01:32:57.363

FAQ по просмотру MKV/h.264/AAC

 
Кто просматривает тему:

Форум Тема Автор Размер
Фильмы 2011 года Адский мотель / Motel Hell (Кевин Коннор)[1980, ужасы, комедия, HDTVRip] | P2 sergej644 1.47 GB
Фантастика и фэнтези Белянин Андрей, Черная Галина - Детектив из Мокрых Псов 3. Отель «У призрака» (2015) MP3 Swager 419 MB
Научная и техническая литература Котельников В.С. - Большой справочник столяра (2014) FB2 достали все 6 MB
Фильмы (HD Rips | 720p, 1080p) Мотель / The Bag Man (Дэвид Гровик / David Grovic) [2013, США, триллер, криминал, BDRemux 1080p] DVO (den904 & DeadSno) + Original (Eng) + Subs (Rus, Eng) reversefile 29.5 GB
Фильмы (HD Rips | 720p, 1080p) Мотель / The Bag Man (Дэвид Гровик / David Grovic) [2013, США, триллер, криминал, BDRip 720p] DVO (den904 & DeadSno) + Original (Eng) + Subs (Rus, Eng) reversefile 5.15 GB
Фильмы 2014 года Мотель / The Bag Man (Дэвид Гровик / David Grovic) [2014, США, триллер, криминал, BDRip] MVO + Sub Rus, eng + Original Eng TorrentFilm 1.76 GB
Фильмы 2014 года Мотель / Сумка / The Bag Man (Дэвид Гровик) [2014 г., триллер, криминал, HDRip] BOSS 1.46 GB
Зарубежные сериалы Мотель Бейтс / Bates Motel [S01] (2013) WEB-DLRip 720p. | Первый канал Белочка 12.52 GB
Показать сообщения:    

Текущее время: Сегодня 20:25

Часовой пояс: GMT



Вы не можете начинать темы
Вы не можете отвечать на сообщения
Вы не можете редактировать свои сообщения
Вы не можете удалять свои сообщения
Вы не можете голосовать в опросах
Вы не можете прикреплять файлы к сообщениям
Вы не можете скачивать файлы