Отель «Артемида» / Hotel Artemis (2018) UHD BDRemux 2160p | 4K | SDR | iTunes

 
Автор Сообщение

BOSS ®

Пол:

Стаж: 4 года 1 месяц

Сообщений: 12416

Откуда: ODESSA



Награды: 22 (Подробнее)

Top Releaser 2 (Количество: 1) Top Releaser 4 (Количество: 1) Top Keeper 1 (Количество: 1)
Торрент-статистика

Создавать темы 15-Окт-2018 08:48

[Цитировать]

Информация о фильме
Название: Отель «Артемида»
Оригинальное название: Hotel Artemis
Год выхода: 2018
Жанр: боевик, триллер, криминал
Режиссер: Дрю Пирс
В ролях: Джоди Фостер, Стерлинг К. Браун, София Бутелла, Джефф Голдблюм, Брайан Тайри Генри, Дженни Слейт, Закари Куинто, Чарли Дэй, Дэйв Батиста, Кеннет Чои

О фильме: В Лос-Анджелесе недалекого будущего каждый уважающий себя преступник отправляется за медицинской помощью к суровой Медсестре, которая содержит отель «Артемида». Здесь члены особого клуба могут получить лечение и отдохнуть. Но парочка новых клиентов случайно приводит за собой местного криминального босса, желающего получить заветный предмет, похищенный в результате ограбления. Постояльцам отеля придется немало попотеть, ведь внутри строго-настрого запрещено любое оружие.
Страна: Великобритания, США
Студия: The Ink Factory, Marc Platt Productions, Point of No Return
Продолжительность: 01:33:45
Перевод: Дублированный | iTunes
Качество: BDRemux 2160p
Видео: 3840x2160 at 23.976 fps, MPEG-H HEVC SDR Video, 68300 kbps avg
Звук:
Аудио #01: 48 kHz, AC3, 5.1, 384 Kbps | iTunes | RUS |
Аудио #02: 48 kHz, DTS-HD MA, 5.1, 3588 Kbps | Оригинал | ENG |
Субтитры: Английские

MI

General
Unique ID : 235004820406759682661942764936425078281 (0xB0CC4835B7D1BB8F3C5D860688C37E09)
Complete name : D:Video111Hotel.Artemis.2018.2160p.UHD.BDRemux.TeamHD.mkv
Format : Matroska
Format version : Version 4
File size : 47.4 GiB
Duration : 1 h 33 min
Overall bit rate mode : Variable
Overall bit rate : 72.3 Mb/s
Movie name : Hotel Artemis 2018 (4K) TeamHD-селезень
Encoded date : UTC 2018-10-15 01:01:25
Writing application : mkvmerge v23.0.0 ('The Bride Said No') 64-bit
Writing library : libebml v1.3.6 + libmatroska v1.4.9
Video
ID : 1
Format : HEVC
Format/Info : High Efficiency Video Coding
Format profile : Main 10@L5.1@High
Codec ID : V_MPEGH/ISO/HEVC
Duration : 1 h 33 min
Bit rate : 68.3 Mb/s
Width : 3 840 pixels
Height : 2 160 pixels
Display aspect ratio : 16:9
Frame rate mode : Constant
Frame rate : 23.976 (24000/1001) FPS
Color space : YUV
Chroma subsampling : 4:2:0
Bit depth : 10 bits
Bits/(Pixel*Frame) : 0.344
Stream size : 44.8 GiB (95%)
Language : English
Default : Yes
Forced : No
Color range : Limited
Color primaries : BT.709
Transfer characteristics : BT.709
Matrix coefficients : BT.709
Mastering display color pri : R: x=0.000000 y=0.000000, G: x=0.000000 y=0.000000, B: x=0.000000 y=0.000000, White point: x=0.000000 y=0.000000
Mastering display luminance : min: 0.0000 cd/m2, max: 0 cd/m2
Audio #1
ID : 2
Format : AC-3
Format/Info : Audio Coding 3
Commercial name : Dolby Digital
Codec ID : A_AC3
Duration : 1 h 33 min
Bit rate mode : Constant
Bit rate : 384 kb/s
Channel(s) : 6 channels
Channel layout : L R C LFE Ls Rs
Sampling rate : 48.0 kHz
Frame rate : 31.250 FPS (1536 SPF)
Bit depth : 16 bits
Compression mode : Lossy
Stream size : 257 MiB (1%)
Title : iTunes
Language : Russian
Service kind : Complete Main
Default : Yes
Forced : Yes
Audio #2
ID : 3
Format : DTS XLL
Format/Info : Digital Theater Systems
Commercial name : DTS-HD Master Audio
Codec ID : A_DTS
Duration : 1 h 33 min
Bit rate mode : Variable
Bit rate : 3 588 kb/s
Channel(s) : 6 channels
Channel layout : C L R Ls Rs LFE
Sampling rate : 48.0 kHz
Frame rate : 93.750 FPS (512 SPF)
Bit depth : 24 bits
Compression mode : Lossless
Stream size : 2.35 GiB (5%)
Title : Original
Language : English
Default : No
Forced : No
Text #1
ID : 4
Format : UTF-8
Codec ID : S_TEXT/UTF8
Codec ID/Info : UTF-8 Plain Text
Duration : 1 h 29 min
Bit rate : 69 b/s
Count of elements : 1454
Stream size : 45.8 KiB (0%)
Title : Full
Language : English
Default : No
Forced : No
Text #2
ID : 5
Format : UTF-8
Codec ID : S_TEXT/UTF8
Codec ID/Info : UTF-8 Plain Text
Duration : 1 h 33 min
Bit rate : 76 b/s
Count of elements : 1679
Stream size : 52.5 KiB (0%)
Title : SDH
Language : English
Default : No
Forced : No
Text #3
ID : 6
Format : UTF-8
Codec ID : S_TEXT/UTF8
Codec ID/Info : UTF-8 Plain Text
Duration : 1 h 33 min
Bit rate : 120 b/s
Count of elements : 1678
Stream size : 82.7 KiB (0%)
Title : SDH Colored
Language : English
Default : No
Forced : No
Menu
00:00:00.000 : en:Chapter 1
00:05:09.684 : en:Chapter 2
00:13:06.076 : en:Chapter 3
00:17:40.309 : en:Chapter 4
00:22:09.619 : en:Chapter 5
00:28:00.095 : en:Chapter 6
00:33:35.054 : en:Chapter 7
00:38:58.502 : en:Chapter 8
00:42:21.872 : en:Chapter 9
00:46:53.018 : en:Chapter 10
00:52:45.871 : en:Chapter 11
00:56:43.566 : en:Chapter 12
01:00:13.651 : en:Chapter 13
01:04:05.258 : en:Chapter 14
01:08:45.287 : en:Chapter 15
01:13:52.719 : en:Chapter 16
01:18:17.693 : en:Chapter 17
01:24:49.751 : en:Chapter 18
[Профиль] [ЛС]
Кто просматривает тему:

Форум Тема Автор Размер
Фильмы 2011 года Адский мотель / Motel Hell (Кевин Коннор)[1980, ужасы, комедия, HDTVRip] | P2 sergej644 1.47 GB
Фантастика и фэнтези Белянин Андрей, Черная Галина - Детектив из Мокрых Псов 3. Отель «У призрака» (2015) MP3 Swager 419 MB
Научная и техническая литература Котельников В.С. - Большой справочник столяра (2014) FB2 достали все 6 MB
Фильмы (HD Rips | 720p, 1080p) Мотель / The Bag Man (Дэвид Гровик / David Grovic) [2013, США, триллер, криминал, BDRemux 1080p] DVO (den904 & DeadSno) + Original (Eng) + Subs (Rus, Eng) reversefile 29.5 GB
Фильмы (HD Rips | 720p, 1080p) Мотель / The Bag Man (Дэвид Гровик / David Grovic) [2013, США, триллер, криминал, BDRip 720p] DVO (den904 & DeadSno) + Original (Eng) + Subs (Rus, Eng) reversefile 5.15 GB
Фильмы 2014 года Мотель / The Bag Man (Дэвид Гровик / David Grovic) [2014, США, триллер, криминал, BDRip] MVO + Sub Rus, eng + Original Eng TorrentFilm 1.76 GB
Фильмы 2014 года Мотель / Сумка / The Bag Man (Дэвид Гровик) [2014 г., триллер, криминал, HDRip] BOSS 1.46 GB
Зарубежные сериалы Мотель Бейтс / Bates Motel [S01] (2013) WEB-DLRip 720p. | Первый канал Белочка 12.52 GB
Показать сообщения:    

Текущее время: Сегодня 03:26

Часовой пояс: GMT



Вы не можете начинать темы
Вы не можете отвечать на сообщения
Вы не можете редактировать свои сообщения
Вы не можете удалять свои сообщения
Вы не можете голосовать в опросах
Вы не можете прикреплять файлы к сообщениям
Вы не можете скачивать файлы