Отель «Артемида» / Hotel Artemis (2018) BDRip 1080p | iTunes

 
Author Message

BOSS ®

Gender:

Longevity: 4 years 10 months

Posts: 14166

Location: ODESSA



: 22 ()

Mega Releaser 3 (1) Top Seeder 5 (1) Top Releaser 5 (1)
Торрент-статистика

Post 15-Oct-2018 08:44

[Quote]

Информация о фильме
Название: Отель «Артемида»
Оригинальное название: Hotel Artemis
Год выхода: 2018
Жанр: Боевик, триллер, криминал
Режиссер: Дрю Пирс
В ролях: Джоди Фостер, Стерлинг К. Браун, София Бутелла, Джефф Голдблюм, Брайан Тайри Генри, Дженни Слейт, Закари Куинто, Чарли Дэй, Дэйв Батиста, Кеннет Чои
О фильме:
В Лос-Анджелесе недалекого будущего каждый уважающий себя преступник отправляется за медицинской помощью к суровой Медсестре, которая содержит отель «Артемида». Здесь члены особого клуба могут получить лечение и отдохнуть. Но парочка новых клиентов случайно приводит за собой местного криминального босса, желающего получить заветный предмет, похищенный в результате ограбления. Постояльцам отеля придется немало попотеть, ведь внутри строго-настрого запрещено любое оружие.

Страна: Великобритания, США
Студия: The Ink Factory, Marc Platt Productions, Point of No Return
Продолжительность: 01:33:46
Перевод: Дублированный (iTunes)
Файл
Кодек: H.264
Качество: BDRip 1080p | iTunes
Видео: AVC/H.264, 1920x800, ~13,0 Мbps, 23.976 fps
Звук:
Аудио 1: AC3, 6 ch, 384 Kbps - Русский
Аудио 2: DTS, 6 ch, 1509 Kbps - Английский
Субтитры: Русские (Forced), английские (Full)

Mediainfo

Общее
Уникальный идентификатор : 144534558898087106195298759379612369943 (0x6CBC57EF7D315963B937F5B45D888417)
Полное имя : Hotel Artemis.2018.BDRip.1080p.mkv
Формат : Matroska
Версия формата : Version 4
Размер файла : 9,75 Гбайт
Продолжительность : 1 ч. 33 м.
Режим общего битрейта : Переменный
Общий поток : 14,9 Мбит/сек
Дата кодирования : UTC 2018-10-14 21:01:02
Программа кодирования : mkvmerge v23.0.0 ('The Bride Said No') 64-bit
Библиотека кодирования : libebml v1.3.6 + libmatroska v1.4.9
Видео
Идентификатор : 1
Формат : AVC
Формат/Информация : Advanced Video Codec
Профиль формата : High@L4.1
Настройки формата : CABAC / 4 Ref Frames
Параметр CABAC формата : Да
Параметр RefFrames формата : 4 кадра
Идентификатор кодека : V_MPEG4/ISO/AVC
Продолжительность : 1 ч. 33 м.
Вид битрейта : Переменный
Битрейт : 13,0 Мбит/сек
Максимальный битрейт : 50,0 Мбит/сек
Ширина : 1920 пикселей
Высота : 800 пикселей
Соотношение сторон : 2,40:1
Режим частоты кадров : Постоянный
Частота кадров : 23,976 (24000/1001) кадра/сек
Цветовое пространство : YUV
Субдискретизация насыщенности : 4:2:0
Битовая глубина : 8 бит
Тип развёртки : Прогрессивная
Бит/(Пиксели*Кадры) : 0.353
Размер потока : 8,51 Гбайт (87%)
Заголовок : iFT
Библиотека кодирования : x264 core 142 r2431+42 c69a006 tMod [8-bit@all X86_64]
Настройки программы : cabac=1 / ref=5 / deblock=1:-3:-3 / analyse=0x3:0x133 / me=umh / subme=11 / psy=1 / fade_compensate=0.00 / psy_rd=1.04:1.05 / mixed_ref=1 / me_range=48 / chroma_me=1 / trellis=2 / 8x8dct=1 / cqm=0 / deadzone=21,11 / fast_pskip=0 / chroma_qp_offset=-4 / threads=16 / lookahead_threads=2 / sliced_threads=0 / nr=0 / decimate=0 / interlaced=0 / bluray_compat=0 / constrained_intra=0 / fgo=0 / bframes=8 / b_pyramid=1 / b_adapt=2 / b_bias=0 / direct=3 / weightb=1 / open_gop=0 / weightp=2 / keyint=240 / keyint_min=23 / scenecut=40 / intra_refresh=0 / rc_lookahead=150 / rc=2pass / mbtree=0 / bitrate=13000 / ratetol=1.0 / qcomp=0.70 / qpmin=0:0:0 / qpmax=69:69:69 / qpstep=4 / cplxblur=20.0 / qblur=0.5 / vbv_maxrate=50000 / vbv_bufsize=62500 / nal_hrd=vbr / filler=0 / ip_ratio=1.30 / pb_ratio=1.20 / aq=2:0.80 / aq-sensitivity=10.00 / aq-factor=1.00:1.00:1.00 / aq2=0 / aq3=0
Язык : English
Default : Да
Forced : Нет
Цветовой диапазон : Limited
Основные цвета : BT.709
Характеристики трансфера : BT.709
Коэффициенты матрицы : BT.709
Аудио #1
Идентификатор : 2
Формат : AC-3
Формат/Информация : Audio Coding 3
Коммерческое название : Dolby Digital
Идентификатор кодека : A_AC3
Продолжительность : 1 ч. 33 м.
Вид битрейта : Постоянный
Битрейт : 384 Кбит/сек
Каналы : 6 каналов
Channel layout : L R C LFE Ls Rs
Частота : 48,0 КГц
Частота кадров : 31,250 кадров/сек (1536 SPF)
Битовая глубина : 16 бит
Метод сжатия : С потерями
Размер потока : 257 Мбайт (3%)
Заголовок : DUB | iTunes
Язык : Russian
ServiceKind : Complete Main
Default : Да
Forced : Нет
Аудио #2
Идентификатор : 3
Формат : DTS
Формат/Информация : Digital Theater Systems
Идентификатор кодека : A_DTS
Продолжительность : 1 ч. 33 м.
Вид битрейта : Постоянный
Битрейт : 1509 Кбит/сек
Каналы : 6 каналов
Channel layout : C L R Ls Rs LFE
Частота : 48,0 КГц
Частота кадров : 93,750 кадра/сек (512 SPF)
Битовая глубина : 24 бит
Метод сжатия : С потерями
Размер потока : 1012 Мбайт (10%)
Язык : English
Default : Нет
Forced : Нет
Текст #1
Идентификатор : 4
Формат : UTF-8
Идентификатор кодека : S_TEXT/UTF8
Идентификатор кодека/Информация : UTF-8 Plain Text
Продолжительность : 4 с. 630 мс.
Битрейт : 82 бит/сек
ElementCount : 1
Размер потока : 48,0 байт (0%)
Заголовок : Forced
Язык : Russian
Default : Да
Forced : Нет
Текст #2
Идентификатор : 5
Формат : UTF-8
Идентификатор кодека : S_TEXT/UTF8
Идентификатор кодека/Информация : UTF-8 Plain Text
Продолжительность : 1 ч. 29 м.
Битрейт : 69 бит/сек
ElementCount : 1454
Размер потока : 45,8 Кбайт (0%)
Язык : English
Default : Нет
Forced : Нет
Меню
00:00:00.000 : en:Chapter 01
00:05:09.684 : en:Chapter 02
00:13:06.076 : en:Chapter 03
00:17:40.309 : en:Chapter 04
00:22:09.619 : en:Chapter 05
00:28:00.095 : en:Chapter 06
00:33:35.054 : en:Chapter 07
00:38:58.502 : en:Chapter 08
00:42:21.872 : en:Chapter 09
00:46:53.018 : en:Chapter 10
00:52:45.871 : en:Chapter 11
00:56:43.566 : en:Chapter 12
01:00:13.651 : en:Chapter 13
01:04:05.258 : en:Chapter 14
01:08:45.287 : en:Chapter 15
01:13:52.719 : en:Chapter 16
01:18:17.693 : en:Chapter 17
01:24:49.751 : en:Chapter 18
01:33:45.411 : en:Chapter 19

Скриншоты

[Profile] [PM]
Кто просматривает тему:

Forum Topic Author Size
Фильмы 2011 года Адский мотель / Motel Hell (Кевин Коннор)[1980, ужасы, комедия, HDTVRip] | P2 sergej644 1.47 GB
Фантастика и фэнтези Белянин Андрей, Черная Галина - Детектив из Мокрых Псов 3. Отель «У призрака» (2015) MP3 Swager 419 MB
Научная и техническая литература Котельников В.С. - Большой справочник столяра (2014) FB2 достали все 6 MB
Фильмы (HD Rips | 720p, 1080p) Мотель / The Bag Man (Дэвид Гровик / David Grovic) [2013, США, триллер, криминал, BDRemux 1080p] DVO (den904 & DeadSno) + Original (Eng) + Subs (Rus, Eng) reversefile 29.5 GB
Фильмы (HD Rips | 720p, 1080p) Мотель / The Bag Man (Дэвид Гровик / David Grovic) [2013, США, триллер, криминал, BDRip 720p] DVO (den904 & DeadSno) + Original (Eng) + Subs (Rus, Eng) reversefile 5.15 GB
Фильмы 2014 года Мотель / The Bag Man (Дэвид Гровик / David Grovic) [2014, США, триллер, криминал, BDRip] MVO + Sub Rus, eng + Original Eng TorrentFilm 1.76 GB
Фильмы 2014 года Мотель / Сумка / The Bag Man (Дэвид Гровик) [2014 г., триллер, криминал, HDRip] BOSS 1.46 GB
Зарубежные сериалы Мотель Бейтс / Bates Motel [S01] (2013) WEB-DLRip 720p. | Первый канал Белочка 12.52 GB
Display posts from previous:    

The time now is: Today 11:41

All times are GMT



You cannot post new topics in this forum
You cannot reply to topics in this forum
You cannot edit your posts in this forum
You cannot delete your posts in this forum
You cannot vote in polls in this forum
You cannot attach files in this forum
You cannot download files in this forum