Отдых на побережье Черного моря (RTGHD) [2013, Документальный, HDTV 1080i]

 
Автор Сообщение

TorrentFilm ®

Пол:

Стаж: 1 год 11 месяцев

Сообщений: 7741



Награды: Нет

Торрент-статистика

Создавать темы 04-Фев-2015 00:01

[Цитировать]

Отдых на побережье Черного моря
Год выпуска: 2013
Страна: Россия
Жанр: Документальный
Продолжительность: 00:51:27
Перевод: Не требуется
Описание: Тихие бухты. Золотые барханы, галечные пляжи. Бесконечная гладь моря. Курортная полоса Черноморского побережья растянулась на 300 километров. На этом расстоянии пейзажи разительно меняются. Дюны Анапы, лазурная бухта Новороссийска, серпантин гор Туапсе, тропические парки Сочи - а в их окружении комфортабельные отели, изысканная кухня и захватывающие развлечения.
Доп. информация: IPTV Remux (запись потока без перекодирования).
Тип релиза: HDTV 1080i
Контейнер: TS
Видео: AVC H.264, 1920x1080i (16:9), 25 fps, 9019 kbps, 0.174 bits/pixel
Аудио: MPEG Audio, 2 channels, 192 kbps, 48KHz

MediaInfo

GeneralID : 1 (0x1)Complete name : Отдых на побережье Черного моря.tsFormat : MPEG-TSFile size : 3.48 GiBDuration : 51mn 27sOverall bit rate mode : VariableOverall bit rate : 9 691 Kbps
VideoID : 601 (0x259)Menu ID : 1 (0x1)Format : AVCFormat/Info : Advanced Video CodecFormat profile : Main@L4.0Format settings, CABAC : YesFormat settings, ReFrames : 3 framesCodec ID : 27Duration : 51mn 27sBit rate : 9 019 KbpsWidth : 1 920 pixelsHeight : 1 080 pixelsDisplay aspect ratio : 16:9Frame rate : 25.000 fpsStandard : ComponentColor space : YUVChroma subsampling : 4:2:0Bit depth : 8 bitsScan type : InterlacedScan order : Top Field FirstBits/(Pixel*Frame) : 0.174Stream size : 3.24 GiB (93%)Color primaries : BT.709Transfer characteristics : BT.709Matrix coefficients : BT.709
AudioID : 602 (0x25A)Menu ID : 1 (0x1)Format : MPEG AudioFormat version : Version 1Format profile : Layer 2Codec ID : 3Duration : 51mn 27sBit rate mode : ConstantBit rate : 192 KbpsChannel(s) : 2 channelsSampling rate : 48.0 KHzCompression mode : LossyStream size : 70.7 MiB (2%)Language : Russian

Скриншоты

[Профиль] [ЛС]
Показать сообщения:    

Текущее время: Сегодня 15:59

Часовой пояс: GMT



Вы не можете начинать темы
Вы не можете отвечать на сообщения
Вы не можете редактировать свои сообщения
Вы не можете удалять свои сообщения
Вы не можете голосовать в опросах
Вы не можете прикреплять файлы к сообщениям
Вы не можете скачивать файлы