Отдых на Асафовых островах (RTGHD) [2013, Документальный, HDTV 1080i]

 
Автор Сообщение

TorrentFilm ®

Пол:

Стаж: 2 года

Сообщений: 7741



Награды: Нет

Торрент-статистика

Создавать темы 03-Фев-2015 00:00

[Цитировать]

Отдых на Асафовых островах
Год выпуска: 2013
Страна: Россия
Жанр: Документальный
Продолжительность: 00:22:23
Перевод: Не требуется
Описание: Горьковское водохранилище начали возводить в 1948 году и заполнили почти через 10 лет. Появившееся искусственное море повлияло на местный климат, флору и фауну. Изменились видовой состав рыб, скорость течения Волги. Места, которые раньше были безжизненными, покрылись зеленью. Сейчас одно из самых популярных мест на Горьковском водохранилище - Асафовы острова. Здесь разбивают свои лагеря рыбаки, любители походов и проводятся большие туристические фестивали.
Доп. информация: IPTV Remux (запись потока без перекодирования).
02.02.2015 - обновление раздачи! Вместо записи с TorrentStream (битрейт ~5 мбит) - теперь на раздаче исходник с IPTV (~11 мбит).
Тип релиза: HDTV 1080i
Контейнер: TS
Видео: AVC H.264, 1920x1080i (16:9), 25 fps, 10.7 Mbps, 0.206 bits/pixel
Аудио: MPEG Audio, 2 channels, 192 kbps, 48KHz

MediaInfo

GeneralID : 1 (0x1)Complete name : Отдых на Асафовых островах.tsFormat : MPEG-TSFile size : 1.79 GiBDuration : 22mn 23sOverall bit rate mode : VariableOverall bit rate : 11.4 Mbps
VideoID : 601 (0x259)Menu ID : 1 (0x1)Format : AVCFormat/Info : Advanced Video CodecFormat profile : Main@L4.0Format settings, CABAC : YesFormat settings, ReFrames : 3 framesCodec ID : 27Duration : 22mn 23sBit rate : 10.7 MbpsWidth : 1 920 pixelsHeight : 1 080 pixelsDisplay aspect ratio : 16:9Frame rate : 25.000 fpsStandard : ComponentColor space : YUVChroma subsampling : 4:2:0Bit depth : 8 bitsScan type : InterlacedScan order : Top Field FirstBits/(Pixel*Frame) : 0.206Stream size : 1.67 GiB (93%)Color primaries : BT.709Transfer characteristics : BT.709Matrix coefficients : BT.709
AudioID : 602 (0x25A)Menu ID : 1 (0x1)Format : MPEG AudioFormat version : Version 1Format profile : Layer 2Codec ID : 3Duration : 22mn 23sBit rate mode : ConstantBit rate : 192 KbpsChannel(s) : 2 channelsSampling rate : 48.0 KHzCompression mode : LossyStream size : 30.7 MiB (2%)Language : Russian

Скриншоты

[Профиль] [ЛС]
Показать сообщения:    

Текущее время: Сегодня 11:08

Часовой пояс: GMT



Вы не можете начинать темы
Вы не можете отвечать на сообщения
Вы не можете редактировать свои сообщения
Вы не можете удалять свои сообщения
Вы не можете голосовать в опросах
Вы не можете прикреплять файлы к сообщениям
Вы не можете скачивать файлы