Отдам котят в хорошие руки (Александр Баршак) [2012, Россия, комедия, HDTV 1080i]

 
Автор Сообщение

TorrentFilm ®

Пол:

Стаж: 2 года

Сообщений: 7741



Награды: Нет

Торрент-статистика

Создавать темы 01-Янв-2016 00:11

[Цитировать]

Отдам котят в хорошие руки
Жанр: комедия
Год выпуска: 2012
Продолжительность: 01:34:21
Режиссёр: Александр Баршак
В ролях: Карина Андоленко, Ирина Медведева, Денис Бургазлиев, Николай Иванов, Тимофей Трибунцев, Михаил Горевой, Надежда Иванова, Алена Лаптева, Максим Симаков, Татьяна Жукова-Киртбая, Любовь Кондрашова, Андрей Фурманчук, Олег Дуленин, Павел Баршак, Татьяна Сергеева, Ирина Язвинская
Описание: В канун Нового года жизнь подбрасывает Кате целый ворох проблем: уходит любовник, на работе грядут серьезные перемены, а под дверью оказывается коробка с котятами. Пытаясь пристроить котят в "хорошие руки", она попадает в целый водоворот событий, что в конечном итоге позволяет ей переосмыслить многое в своей жизни.
Доп. информация: Запись чистая. Без посторонних надписей. Выкладывается, как есть.
Релиз -
Семпл: http://multi-up.com/819693
Качество видео: HDTV 1080i
Формат видео: MPEG-TS
Видео: AVC, 1920x1080 (16:9), 25 fps, 8576 Kbps, 0.166 bit/pixel
Аудио: AC3, 48 kHz, 384 Kbps, 2 channels

MI

ID : 1 (0x1)
Complete name : Отдам котят в хорошие руки (2012, Россия, Комедия, HDTV) (MYDIMKA).ts
Format : MPEG-TS
File size : 6.21 GiB
Duration : 1h 34mn
Overall bit rate mode : Variable
Overall bit rate : 9 430 Kbps
Video
ID : 101 (0x65)
Menu ID : 1 (0x1)
Format : AVC
Format/Info : Advanced Video Codec
Format profile : High@L4.0
Format settings, CABAC : Yes
Format settings, ReFrames : 3 frames
Codec ID : 27
Duration : 1h 34mn
Bit rate : 8 576 Kbps
Width : 1 920 pixels
Height : 1 080 pixels
Display aspect ratio : 16:9
Frame rate : 25.000 fps
Standard : Component
Color space : YUV
Chroma subsampling : 4:2:0
Bit depth : 8 bits
Scan type : Interlaced
Scan order : Top Field First
Bits/(Pixel*Frame) : 0.165
Stream size : 5.65 GiB (91%)
Color primaries : BT.709
Transfer characteristics : BT.709
Matrix coefficients : BT.709
Audio
ID : 111 (0x6F)
Menu ID : 1 (0x1)
Format : AC-3
Format/Info : Audio Coding 3
Mode extension : CM (complete main)
Format settings, Endianness : Big
Codec ID : 6
Duration : 1h 34mn
Bit rate mode : Constant
Bit rate : 384 Kbps
Channel(s) : 2 channels
Channel positions : Front: L R
Sampling rate : 48.0 KHz
Bit depth : 16 bits
Compression mode : Lossy
Stream size : 259 MiB (4%)
Language : Russian

Скриншот с названием фильма

Скриншоты


[Профиль] [ЛС]
Показать сообщения:    

Текущее время: Сегодня 10:33

Часовой пояс: GMT



Вы не можете начинать темы
Вы не можете отвечать на сообщения
Вы не можете редактировать свои сообщения
Вы не можете удалять свои сообщения
Вы не можете голосовать в опросах
Вы не можете прикреплять файлы к сообщениям
Вы не можете скачивать файлы