Отвязная Калифорния / California Scheming (Марко Вебер / Marco Weber) [2014, США / Rapid Eye Film, триллер, WEB-DLRip] MVO

 
Автор Сообщение

sergej644 ®

Пол:

Стаж: 5 лет 7 месяцев

Сообщений: 6136

Откуда: Soviet Union



Награды: 9 (Подробнее)

Mega Seeder 2 (Количество: 1) Top Seeder 3 (Количество: 1) Mega Seeder 3 (Количество: 1)
Торрент-статистика

Создавать темы 15-Авг-2014 19:36

[Цитировать]

Отвязная Калифорния / California Scheming«Она сводит вас с ума»- -Страна: США / Rapid Eye Film
Жанр: триллер
Год выпуска: 2014
Продолжительность: 01:39:13
Перевод: Профессиональный (многоголосый закадровый)[Чистый звук]
Cубтитры: нет-Режиссер: Марко Вебер / Marco Weber-В ролях: Клаудия Кристиан, Спенсер Дэниелс, Маниш Дайал, С. А. Гриффин, Джессика Янн, Чад Лоу, Джина Мантенья, Майк Джером Путнэм, Рэйчел Сейфёрт, Девон Веркхейзер-Описание: Девушка-подросток, втягивает трех молодых людей в свои интриги. Коварный замысел героини приводит к непредвиденным последствиям, заставляя ее жертв столкнуться лицом к лицу с собственными страхами и смертью…-Доп. информация: http://www.imdb.com/title/tt1918908/
http://www.kinopoisk.ru/film/593249/-Сэмпл: http://multi-up.com/992491-Качество видео: WEB-DLRip
Формат видео: AVI
Видео: 720x304 (2.37:1), 23.976 fps, XviD build 50 ~1774 kbps avg, 0.34 bit/pixel
Аудио: 44.1 kHz, AC3 Dolby Digital, 2/0 (L,R) ch, ~192 kbps

MediaInfo

General
Complete name : D:\Torrents\California.Scheming.2013.D.WEB-DLRip.avi
Format : AVI
Format/Info : Audio Video Interleave
File size : 1.37 GiB
Duration : 1h 39mn
Overall bit rate : 1 976 Kbps
Movie name : California.Scheming.2013.D.WEB-DLRip
Writing application : VirtualDubMod 1.5.10.2 (build 2540/release)
Original source form/Name : Movie
Video #0
ID : 0
Format : MPEG-4 Visual
Format profile : Advanced Simple@L5
Format settings, BVOP : 2
Format settings, QPel : No
Format settings, GMC : No warppoints
Format settings, Matrix : Custom
Codec ID : XVID
Codec ID/Hint : XviD
Duration : 1h 39mn
Bit rate : 1 775 Kbps
Width : 720 pixels
Height : 304 pixels
Display aspect ratio : 2.35:1
Frame rate : 23.976 fps
Color space : YUV
Chroma subsampling : 4:2:0
Bit depth : 8 bits
Scan type : Progressive
Compression mode : Lossy
Bits/(Pixel*Frame) : 0.338
Stream size : 1.23 GiB (90%)
Writing library : XviD 1.2.1 (UTC 2008-12-04)
Audio #1
ID : 1
Format : AC-3
Format/Info : Audio Coding 3
Mode extension : CM (complete main)
Format settings, Endianness : Big
Codec ID : 2000
Duration : 1h 39mn
Bit rate mode : Constant
Bit rate : 192 Kbps
Channel count : 2 channels
Channel positions : Front: L R
Sampling rate : 44.1 KHz
Bit depth : 16 bits
Compression mode : Lossy
Delay relative to video : 500ms
Stream size : 136 MiB (10%)
Alignment : Split accross interleaves
Interleave, duration : 42 ms (1.00 video frame)
Interleave, preload duration : 500 ms

Скриншот c названием фильма

Скриншоты

[Профиль] [ЛС]
Показать сообщения:    

Текущее время: Сегодня 19:29

Часовой пояс: GMT



Вы не можете начинать темы
Вы не можете отвечать на сообщения
Вы не можете редактировать свои сообщения
Вы не можете удалять свои сообщения
Вы не можете голосовать в опросах
Вы не можете прикреплять файлы к сообщениям
Вы не можете скачивать файлы