Отвлекающий маневр / Red Herring (2015) WEB-DL 720p | L2

 
Автор Сообщение

BOSS ®

Пол:

Стаж: 2 года 1 месяц

Сообщений: 3735

Откуда: ODESSA



Награды: 20 (Подробнее)

Top Seeder 4 (Количество: 1) Top Seeder 5 (Количество: 1) Top Seeder 2 (Количество: 1)
Торрент-статистика

Создавать темы 30-Ноя-2015 18:34

[Цитировать]

Информация о фильме
Название: Отвлекающий маневр
Оригинальное название: Red Herring
Год выхода: 2015
Жанр: триллер, драма, криминал, детектив
Режиссер: Ousa Khun
В ролях: Холли Вэлэнс, Коринна Харни, Винсент Пасторе, Стефани МакИнтош, Ланетт Фюджит, Рич Хопкинс, Оскар Гудман, Бобби Биллар, Эдуард Осипов, Сабрина Флореср
О фильме: Детектив расследует, что его лучший друг — наемный убийца, который находится под властью Элиты Лас-Вегаса.

Выпущено: США / Arcay Studios, Cohencidence Productions, Got Films
Продолжительность: 01:30:22
Озвучивание: Любительское (двухголосое) [Parovoz Production]
Файл
Формат: MKV
Качество: WEB-DL 720p
Видео: MPEG-4 AVC, 3990 kb/s, 1280x640
Аудио: Russian: AC3, 192 kb/s (2 ch) / English: AC3, 384 kb/s (6 ch)

MI

Format : Matroska
Format version : Version 2
File size : 2.94 GiB
Duration : 1h 30mn
Overall bit rate : 4 658 Kbps
Encoded date : UTC 2015-11-30 18:19:21
Writing application : mkvmerge v7.8.0 ('River Man') 32bit built on Apr 3 2015 12:11:22
Writing library : libebml v1.3.1 + libmatroska v1.4.2
Video
ID : 1
Format : AVC
Format/Info : Advanced Video Codec
Format profile : High@L3.1
Format settings, CABAC : No
Format settings, ReFrames : 2 frames
Codec ID : V_MPEG4/ISO/AVC
Duration : 1h 30mn
Bit rate : 3 990 Kbps
Width : 1 280 pixels
Height : 640 pixels
Display aspect ratio : 2.000
Frame rate mode : Constant
Frame rate : 23.976 fps
Color space : YUV
Chroma subsampling : 4:2:0
Bit depth : 8 bits
Scan type : Progressive
Bits/(Pixel*Frame) : 0.203
Stream size : 2.52 GiB (86%)
Language : English
Default : Yes
Forced : No
Color range : Limited
Color primaries : BT.709
Transfer characteristics : BT.709
Matrix coefficients : BT.709
Audio #1
ID : 2
Format : AC-3
Format/Info : Audio Coding 3
Mode extension : CM (complete main)
Format settings, Endianness : Big
Codec ID : A_AC3
Duration : 1h 30mn
Bit rate mode : Constant
Bit rate : 192 Kbps
Channel(s) : 2 channels
Channel positions : Front: L R
Sampling rate : 48.0 KHz
Bit depth : 16 bits
Compression mode : Lossy
Stream size : 124 MiB (4%)
Language : Russian
Default : Yes
Forced : No
Audio #2
ID : 3
Format : AC-3
Format/Info : Audio Coding 3
Mode extension : CM (complete main)
Format settings, Endianness : Big
Codec ID : A_AC3
Duration : 1h 30mn
Bit rate mode : Constant
Bit rate : 384 Kbps
Channel(s) : 6 channels
Channel positions : Front: L C R, Side: L R, LFE
Sampling rate : 48.0 KHz
Bit depth : 16 bits
Compression mode : Lossy
Stream size : 248 MiB (8%)
Language : English
Default : No
Forced : No
Menu
00:00:00.000 : en:Chapter 1
00:03:37.000 : en:Chapter 2
00:09:16.000 : en:Chapter 3
00:14:20.000 : en:Chapter 4
00:20:39.000 : en:Chapter 5
00:27:39.000 : en:Chapter 6
00:33:39.000 : en:Chapter 7
00:39:23.000 : en:Chapter 8
00:46:25.000 : en:Chapter 9
00:53:46.000 : en:Chapter 10
01:00:07.000 : en:Chapter 11
01:07:50.000 : en:Chapter 12
01:11:57.000 : en:Chapter 13
01:19:00.000 : en:Chapter 14
01:23:51.000 : en:Chapter 15
01:26:12.000 : en:Chapter 16

Скриншоты



[Профиль] [ЛС]
Показать сообщения:    

Текущее время: Сегодня 18:38

Часовой пояс: GMT



Вы не можете начинать темы
Вы не можете отвечать на сообщения
Вы не можете редактировать свои сообщения
Вы не можете удалять свои сообщения
Вы не можете голосовать в опросах
Вы не можете прикреплять файлы к сообщениям
Вы не можете скачивать файлы