Ответный удар / Strike Back / Сезон: 4 / Серии: 1-10 из 10 (Майкл Дж. Бассет, Джулиан Холмс) [2013, Боевик, триллер, HDTVRip] MVO (BaibaKo) + Original

 
Автор Сообщение

Russian Mafia ®

Пол:

Стаж: 1 год 8 месяцев

Сообщений: 4257



Награды: 10 (Подробнее)

Mega Seeder 5 (Количество: 1) Top Releaser 5 (Количество: 1) Mega Seeder 1 (Количество: 1)
Торрент-статистика

Создавать темы 26-Авг-2015 07:44

[Цитировать]

Ответный удар / Strike Back- Год выпуска: 2013
Страна: Великобритания
Жанр: Боевик, триллер
Продолжительность: 00:48:00
Перевод: Профессиональный (многоголосый закадровый) | BaibaKo-Режиссёр: Майкл Дж. Бассет, Джулиан Холмс
В ролях: Филип Уинчестер, Салливан Степлтон, Рона Митра, Мишель Лукес, Робсон Грин, Дугрей Скотт, Мартин Клунз и др.-Описание: 4-й сезон британского сериала "Ответный удар" ("Теневая война") продолжает повествовать о работе оперативников элитного подразделения британской разведки, участвующих в опасных боевых операциях по пресечению террористических актов в различных частях мира. В новых сериях идет рассказ о преследовании неуловимого террориста Aль-Захири и его партнеров по картелю в различных районах мира, в том числе в Колумбии, Бейруте и Европе.-Релиз от -Сэмпл: http://multi-up.com/1030663
Качество: HDTVRip
Формат: AVI
Видео: XviD build 50, 720x400 (1.80:1), 23.976 fps, ~1493 kbps avg, 0.216 bit/pixel
Аудио Rus: MP3, 48 kHz, 2 ch, ~192.00 kbps avg
Аудио Eng: MP3, 48 kHz, 2 ch, ~192.00 kbps avg
Субтитры: отсутствуют

MediaInfo

General
Complete name : F:\Ответный удар (Сезон 4) BaibaKo\Strike.Back.s04e01.HDTVRip.BaibaKo.avi
Format : AVI
Format/Info : Audio Video Interleave
File size : 656 MiB
Duration : 48mn 31s
Overall bit rate : 1 891 Kbps
Writing application : VirtualDubMod 1.5.10.2 (build 2542/release)
Writing library : VirtualDubMod build 2542/release

Video
ID : 0
Format : MPEG-4 Visual
Format profile : Advanced Simple@L5
Format settings, BVOP : 2
Format settings, QPel : No
Format settings, GMC : No warppoints
Format settings, Matrix : Default (H.263)
Codec ID : XVID
Codec ID/Hint : XviD
Duration : 48mn 31s
Bit rate : 1 493 Kbps
Width : 720 pixels
Height : 400 pixels
Display aspect ratio : 16:9
Frame rate : 23.976 fps
Color space : YUV
Chroma subsampling : 4:2:0
Bit depth : 8 bits
Scan type : Progressive
Compression mode : Lossy
Bits/(Pixel*Frame) : 0.216
Stream size : 518 MiB (79%)
Writing library : XviD 1.2.1 (UTC 2008-12-04)

Audio #1
ID : 1
Format : MPEG Audio
Format version : Version 1
Format profile : Layer 3
Mode : Joint stereo
Mode extension : MS Stereo
Codec ID : 55
Codec ID/Hint : MP3
Duration : 48mn 31s
Bit rate mode : Constant
Bit rate : 192 Kbps
Channel count : 2 channels
Sampling rate : 48.0 KHz
Compression mode : Lossy
Stream size : 66.6 MiB (10%)
Alignment : Aligned on interleaves
Interleave, duration : 42 ms (1.00 video frame)
Interleave, preload duration : 504 ms
Writing library : LAME3.99r
Encoding settings : -m j -V 4 -q 2 -lowpass 18.6 -b 192

Audio #2
ID : 2
Format : MPEG Audio
Format version : Version 1
Format profile : Layer 3
Mode : Joint stereo
Mode extension : MS Stereo
Codec ID : 55
Codec ID/Hint : MP3
Duration : 48mn 31s
Bit rate mode : Constant
Bit rate : 192 Kbps
Channel count : 2 channels
Sampling rate : 48.0 KHz
Compression mode : Lossy
Stream size : 66.6 MiB (10%)
Alignment : Aligned on interleaves
Interleave, duration : 42 ms (1.00 video frame)
Interleave, preload duration : 504 ms
Writing library : LAME3.99r
Encoding settings : -m j -V 4 -q 2 -lowpass 18.6 -b 192

Скриншоты

[Профиль] [ЛС]
Кто просматривает тему:

Форум Тема Автор Размер
Программы [Разное] Учебник с ответами. Русский язык. 4 класс. Зеленина. v1.3 [Android 2.2+, RUS] TorrentFilm 97 MB
Программы [Разное] Учебник с ответами. Русский язык. 9 класс. Львова С.И. v1.3 [Android 2.2, RUS] TorrentFilm 79 MB
Программы [Справочник] Калькулятор - ЛовиОтвет v.1.08 [Android 1.5+, RUS] TorrentFilm 543 KB
Фильмы (DVD 5/9) В зоне особого внимания / Ответный ход / Absprung in die Todeszone & Der Gegenzug (Андрей Малюков / Михаил Туманишвили) [1977 / 1981, СССР, Боевик, DVD9] Немецкий TorrentFilm 7.52 GB
Разная литература Галина Кизима | 1001 ответ на важные вопросы садовода и огородника (2015) [FB2] достали все 1 MB
Фильмы (HD Rips | 720p, 1080p) За конец ответишь / Bad Johnson (2014) WEB-DL 720p | Чистый звук sergej644 2.97 GB
Фильмы 2014 года За конец ответишь / Bad Johnson (Хак Ботко / Huck Botko) [2014, США, комедия, мелодрама, фэнтези, WEB-DLRip-AVC] MVO painkiller 746 MB
Фильмы 2014 года За конец ответишь / Bad Johnson (Хак Ботко / Huck Botko) [2014, США, фэнтези, комедия, WEB-DLRip] MVO reversefile 1.37 GB
Показать сообщения:    

Текущее время: Сегодня 14:19

Часовой пояс: GMT



Вы не можете начинать темы
Вы не можете отвечать на сообщения
Вы не можете редактировать свои сообщения
Вы не можете удалять свои сообщения
Вы не можете голосовать в опросах
Вы не можете прикреплять файлы к сообщениям
Вы не можете скачивать файлы