Ответный удар / Strike back / Сезон: 3 / Серии: 1-10 из 10 (Билл Иглз) [2012, Боевик, триллер, HDRip] MVO (Sony Turbo) + Original

 
Автор Сообщение

Russian Mafia ®

Пол:

Стаж: 2 года 5 месяцев

Сообщений: 4249



Награды: 10 (Подробнее)

Mega Seeder 4 (Количество: 1) Mega Seeder 5 (Количество: 1) Top Releaser 5 (Количество: 1)
Торрент-статистика

Создавать темы 26-Авг-2015 07:45

[Цитировать]

Ответный удар / Strike back- Год выпуска: 2012
Страна: Великобритания
Жанр: Боевик, триллер
Продолжительность: 00:47:00
Перевод: Профессиональный (многоголосый закадровый) | Sony Turbo
Сэмпл: http://multi-up.com/1008068
Русские субтитры: нет-Режиссёр: Билл Иглз
В ролях: Рашан Стоун, Филип Уинчестер, Салливан Степлтон, Аманда Милинг, Мишель Лукес, Джими Мистри, Шэйн Тейлор, Эндрю Линкольн, Джоди Мэй, Рона Митра и др.-Описание: 3-й сезон британского сериала "Ответный удар" под названием "Отмщение" продолжает повествовать о работе оперативников британской разведки, участвующих в опасных боевых операциях в различных частях мира. В новых сериях идет рассказ о боевиках лояльных Хусейну Ваабри, печально известному сомалийскому командиру, которые напали на эскорт посольства, похитив британского дипломата и младшего атташе. Оперативник 20-го отдела, Дэмиен Скотт, отправляется в Могадишо, чтобы спасти их. Тем временем Майкл Стоунбридж пытается привыкнуть к своей новой жизни вне 20-го отдела.--Качество: HDRip
Формат: AVI
Видео кодек: XviD
Аудио кодек: MP3
Видео: 720x400 (16:9), 23.976 fps, XviD ~1199 kbps avg, 0.174 bit/pixel
Аудио Rus: 48 kHz, MPEG Layer 3, 2 ch, 128.00 kbps avg
Аудио Eng: 48 kHz, MPEG Layer 3, 2 ch, 128.00 kbps avg
Субтитры: отсутствуют

MediaInfo

General
Complete name : F:\strike.back.s03.hdrip.rus.eng.to4ka\strike.back.s03e01.hdrip.rus.eng.to4ka.avi
Format : AVI
Format/Info : Audio Video Interleave
File size : 500 MiB
Duration : 47mn 34s
Overall bit rate : 1 469 Kbps
Writing application : VirtualDubMod 1.6.0.0 SURROUND (build 2560/release)
Writing library : VirtualDubMod build 2560/release

Video
ID : 0
Format : MPEG-4 Visual
Format profile : Advanced Simple@L5
Format settings, BVOP : 1
Format settings, QPel : No
Format settings, GMC : No warppoints
Format settings, Matrix : Default (MPEG)
Codec ID : XVID
Codec ID/Hint : XviD
Duration : 47mn 34s
Bit rate : 1 199 Kbps
Width : 720 pixels
Height : 400 pixels
Display aspect ratio : 16:9
Frame rate : 23.976 fps
Color space : YUV
Chroma subsampling : 4:2:0
Bit depth : 8 bits
Scan type : Progressive
Compression mode : Lossy
Bits/(Pixel*Frame) : 0.174
Stream size : 408 MiB (82%)
Writing library : XviD 64

Audio #1
ID : 1
Format : MPEG Audio
Format version : Version 1
Format profile : Layer 3
Mode : Joint stereo
Mode extension : MS Stereo
Codec ID : 55
Codec ID/Hint : MP3
Duration : 47mn 34s
Bit rate mode : Constant
Bit rate : 128 Kbps
Channel count : 2 channels
Sampling rate : 48.0 KHz
Compression mode : Lossy
Stream size : 43.5 MiB (9%)
Alignment : Aligned on interleaves
Interleave, duration : 42 ms (1.00 video frame)
Interleave, preload duration : 504 ms

Audio #2
ID : 2
Format : MPEG Audio
Format version : Version 1
Format profile : Layer 3
Mode : Joint stereo
Mode extension : MS Stereo
Codec ID : 55
Codec ID/Hint : MP3
Duration : 47mn 34s
Bit rate mode : Constant
Bit rate : 128 Kbps
Channel count : 2 channels
Sampling rate : 48.0 KHz
Compression mode : Lossy
Stream size : 43.5 MiB (9%)
Alignment : Aligned on interleaves
Interleave, duration : 42 ms (1.00 video frame)
Interleave, preload duration : 504 ms
Writing library : LAME3.98r
Encoding settings : -m j -V 4 -q 2 -lowpass 17 -b 128

Скриншоты

[Профиль] [ЛС]
Показать сообщения:    

Текущее время: Сегодня 08:00

Часовой пояс: GMT



Вы не можете начинать темы
Вы не можете отвечать на сообщения
Вы не можете редактировать свои сообщения
Вы не можете удалять свои сообщения
Вы не можете голосовать в опросах
Вы не можете прикреплять файлы к сообщениям
Вы не можете скачивать файлы