Ответный удар / Strike back / Сезон: 2 / Серии: 1-10 из 10 (Дэниэл Персивал, Эдвард Холл, Билл Иглз) [2011, Боевик, триллер, HDRip] MVO (Sony Turbo) + Original

 
Автор Сообщение

Russian Mafia ®

Пол:

Стаж: 1 год 8 месяцев

Сообщений: 4257



Награды: 10 (Подробнее)

Top Releaser 2 (Количество: 1) Top Releaser 5 (Количество: 1) Top Releaser 3 (Количество: 1)
Торрент-статистика

Создавать темы 26-Авг-2015 07:46

[Цитировать]

Ответный удар / Strike back- Год выпуска: 2011
Страна: Великобритания
Жанр: Боевик, триллер
Продолжительность: 00:47:00
Перевод: Профессиональный (многоголосый закадровый) | Sony Turbo
Сэмпл: http://multi-up.com/1030527
Русские субтитры: нет-Режиссёр: Дэниэл Персивал, Эдвард Холл, Билл Иглз
В ролях: Филип Уинчестер, Ричард Армитидж, Эндрю Линкольн, Джоди Мэй, Шелли Конн, Лора Гринвуд, Колин Сэлмон, Николя Стефенсон, Орла Брэйди, Шон Паркес и др.-Описание: Проект «Рассвет» возвращается на наши экраны в момент похищения агента Джона Портера (Ричард Армитэдж) пакистанским террористом Латифом. Остатки его команды из «Сектора 20», подразделения военной разведки, должны вступить в гонку со временем, чтобы найти его.--Качество: HDRip
Формат: AVI
Видео: XviD, 720x400 (16:9), 23.976 fps, ~1262 kbps avg, 0.175 bit/pixel
Аудио Rus: MP3, 48 kHz, 2 ch, 128.00 kbps avg
Аудио Eng: MP3, 48 kHz, 2 ch, 128.00 kbps avg
Субтитры: отсутствуют

MediaInfo

General
Complete name : F:\strike.back.s02.hdrip.rus.eng.to4ka\strike.back.s02e01.hdrip.rus.eng.to4ka.avi
Format : AVI
Format/Info : Audio Video Interleave
File size : 501 MiB
Duration : 45mn 39s
Overall bit rate : 1 533 Kbps
Writing application : VirtualDubMod 1.6.0.0 SURROUND (build 2560/release)
Writing library : VirtualDubMod build 2560/release

Video
ID : 0
Format : MPEG-4 Visual
Format profile : Advanced Simple@L5
Format settings, BVOP : 1
Format settings, QPel : No
Format settings, GMC : No warppoints
Format settings, Matrix : Default (MPEG)
Codec ID : XVID
Codec ID/Hint : XviD
Duration : 45mn 39s
Bit rate : 1 262 Kbps
Width : 720 pixels
Height : 400 pixels
Display aspect ratio : 16:9
Frame rate : 25.000 fps
Color space : YUV
Chroma subsampling : 4:2:0
Bit depth : 8 bits
Scan type : Progressive
Compression mode : Lossy
Bits/(Pixel*Frame) : 0.175
Stream size : 412 MiB (82%)
Writing library : XviD 64

Audio #1
ID : 1
Format : MPEG Audio
Format version : Version 1
Format profile : Layer 3
Mode : Joint stereo
Mode extension : MS Stereo
Codec ID : 55
Codec ID/Hint : MP3
Duration : 45mn 39s
Bit rate mode : Constant
Bit rate : 128 Kbps
Channel count : 2 channels
Sampling rate : 48.0 KHz
Compression mode : Lossy
Stream size : 41.8 MiB (8%)
Alignment : Aligned on interleaves
Interleave, duration : 40 ms (1.00 video frame)
Interleave, preload duration : 504 ms

Audio #2
ID : 2
Format : MPEG Audio
Format version : Version 1
Format profile : Layer 3
Mode : Joint stereo
Mode extension : MS Stereo
Codec ID : 55
Codec ID/Hint : MP3
Duration : 45mn 39s
Bit rate mode : Constant
Bit rate : 128 Kbps
Channel count : 2 channels
Sampling rate : 48.0 KHz
Compression mode : Lossy
Stream size : 41.8 MiB (8%)
Alignment : Aligned on interleaves
Interleave, duration : 40 ms (1.00 video frame)
Interleave, preload duration : 504 ms
Writing library : LAME3.98r
Encoding settings : -m j -V 4 -q 2 -lowpass 17 -b 128

Скриншоты

[Профиль] [ЛС]
Кто просматривает тему:

Форум Тема Автор Размер
Программы [Разное] Учебник с ответами. Русский язык. 4 класс. Зеленина. v1.3 [Android 2.2+, RUS] TorrentFilm 97 MB
Программы [Разное] Учебник с ответами. Русский язык. 9 класс. Львова С.И. v1.3 [Android 2.2, RUS] TorrentFilm 79 MB
Программы [Справочник] Калькулятор - ЛовиОтвет v.1.08 [Android 1.5+, RUS] TorrentFilm 543 KB
Фильмы (DVD 5/9) В зоне особого внимания / Ответный ход / Absprung in die Todeszone & Der Gegenzug (Андрей Малюков / Михаил Туманишвили) [1977 / 1981, СССР, Боевик, DVD9] Немецкий TorrentFilm 7.52 GB
Разная литература Галина Кизима | 1001 ответ на важные вопросы садовода и огородника (2015) [FB2] достали все 1 MB
Фильмы (HD Rips | 720p, 1080p) За конец ответишь / Bad Johnson (2014) WEB-DL 720p | Чистый звук sergej644 2.97 GB
Фильмы 2014 года За конец ответишь / Bad Johnson (Хак Ботко / Huck Botko) [2014, США, комедия, мелодрама, фэнтези, WEB-DLRip-AVC] MVO painkiller 746 MB
Фильмы 2014 года За конец ответишь / Bad Johnson (Хак Ботко / Huck Botko) [2014, США, фэнтези, комедия, WEB-DLRip] MVO reversefile 1.37 GB
Показать сообщения:    

Текущее время: Сегодня 22:39

Часовой пояс: GMT



Вы не можете начинать темы
Вы не можете отвечать на сообщения
Вы не можете редактировать свои сообщения
Вы не можете удалять свои сообщения
Вы не можете голосовать в опросах
Вы не можете прикреплять файлы к сообщениям
Вы не можете скачивать файлы