Ответный удар / Strike back / Сезон: 1 / Серии: 1-6 из 6 (Дэниэл Персивал, Эдвард Холл, Билл Иглз) [2010, Боевик, триллер, HDRip] MVO (Русский Репортаж) + Original

 
Автор Сообщение

Russian Mafia ®

Пол:

Стаж: 2 года 3 месяца

Сообщений: 4249



Награды: 10 (Подробнее)

Mega Seeder 2 (Количество: 1) Top Releaser 3 (Количество: 1) Top Releaser 5 (Количество: 1)
Торрент-статистика

Создавать темы 26-Авг-2015 07:47

[Цитировать]

Ответный удар / Strike back- Год выпуска: 2010
Страна: США
Жанр: Боевик, триллер
Продолжительность: 00:44:00
Перевод: Профессиональный (многоголосый закадровый) | Русский Репортаж-Режиссёр: Дэниэл Персивал, Эдвард Холл, Билл Иглз
В ролях: Филип Уинчестер, Ричард Армитедж, Эндрю Линкольн, Джоди Мэй, Шелли Конн, Лора Гринвуд, Колин Сэлмон, Николя Стефенсон, Орла Брэйди, Шон Паркес и др.-Описание: Джон Портер накануне вторжения в Ирак в 2003 году руководит специальным подразделением в операции по спасению заложника в центре Басры. Однако, результатом операции становится катастрофический поворот событий для него и Коллинсона. У Портера, страдающего чувством вины, спустя 7 лет появляется возможность вернуться в Ирак и попытаться все исправить. Спустя годы, Портер и Коллинсон столкнутся снова.-Качество: HDRip
Формат: AVI
Видео: XviD build 50, 720x400 (1.80:1), 25 fps, ~1778 kbps avg, 0.247 bit/pixel
Аудио Rus: AC3 Dolby Digital, 48 kHz, 2/0 (L,R) ch, ~192 kbps
Аудио Eng: AC3 Dolby Digital, 48 kHz, 2/0 (L,R) ch, ~192 kbps
Субтитры: отсутствуют

MediaInfo

General
Complete name : F:\Ответный удар (Сезон 1) Русский репортаж\Strike.Back.s01e01.HDRip.avi
Format : AVI
Format/Info : Audio Video Interleave
File size : 686 MiB
Duration : 44mn 3s
Overall bit rate : 2 177 Kbps
Writing application : VirtualDubModRus 1.5.10.2 (build 2542/release)
Writing library : VirtualDubMod build 2542/release

Video
ID : 0
Format : MPEG-4 Visual
Format profile : Advanced Simple@L5
Format settings, BVOP : No
Format settings, QPel : No
Format settings, GMC : No warppoints
Format settings, Matrix : Default (MPEG)
Codec ID : XVID
Codec ID/Hint : XviD
Duration : 44mn 3s
Bit rate : 1 778 Kbps
Width : 720 pixels
Height : 400 pixels
Display aspect ratio : 16:9
Frame rate : 25.000 fps
Color space : YUV
Chroma subsampling : 4:2:0
Bit depth : 8 bits
Scan type : Progressive
Compression mode : Lossy
Bits/(Pixel*Frame) : 0.247
Stream size : 560 MiB (82%)
Writing library : XviD 1.2.1 (UTC 2008-12-04)

Audio #1
ID : 1
Format : AC-3
Format/Info : Audio Coding 3
Mode extension : CM (complete main)
Format settings, Endianness : Big
Codec ID : 2000
Duration : 44mn 3s
Bit rate mode : Constant
Bit rate : 192 Kbps
Channel count : 2 channels
Channel positions : Front: L R
Sampling rate : 48.0 KHz
Bit depth : 16 bits
Compression mode : Lossy
Stream size : 60.5 MiB (9%)
Alignment : Split accross interleaves
Interleave, duration : 40 ms (1.00 video frame)
Interleave, preload duration : 500 ms

Audio #2
ID : 2
Format : AC-3
Format/Info : Audio Coding 3
Mode extension : CM (complete main)
Format settings, Endianness : Big
Codec ID : 2000
Duration : 44mn 3s
Bit rate mode : Constant
Bit rate : 192 Kbps
Channel count : 2 channels
Channel positions : Front: L R
Sampling rate : 48.0 KHz
Bit depth : 16 bits
Compression mode : Lossy
Stream size : 60.5 MiB (9%)
Alignment : Split accross interleaves
Interleave, duration : 40 ms (1.00 video frame)
Interleave, preload duration : 500 ms

Скриншоты

[Профиль] [ЛС]
Кто просматривает тему:

Показать сообщения:    

Текущее время: Сегодня 12:43

Часовой пояс: GMT



Вы не можете начинать темы
Вы не можете отвечать на сообщения
Вы не можете редактировать свои сообщения
Вы не можете удалять свои сообщения
Вы не можете голосовать в опросах
Вы не можете прикреплять файлы к сообщениям
Вы не можете скачивать файлы