Отвергнутая / Forsaken (Джастин Прайс / Justin Price) [2016, США, ужасы, HDRip] VO (Васька Куролесов)

 
Автор Сообщение

TorrentFilm ®

Пол:

Стаж: 1 год 11 месяцев

Сообщений: 7741



Награды: Нет

Торрент-статистика

Создавать темы 25-Фев-2016 00:08

[Цитировать]

Отвергнутая / Forsaken
Страна: США
Жанр: ужасы
Год выпуска: 2016
Продолжительность: 01:29:22
Перевод: Одноголосый закадровый Васька Куролесов по субтитрам Enigma
Cубтитры: нет
Оригинальная аудиодорожка: нет
Режиссер: Джастин Прайс / Justin Price
В ролях: Мишель Каталано, Давид Казарес, Тони Гомез, Мишель Соза
Описание: Когда Священник обнаруживает, что его жена смертельно больна, он решается пойти против своей веры и использовать знания об изгнании нечистой силы, чтобы спасти ей жизнь.
Сэмпл: http://multi-up.com/1090243
Качество видео: HDRip
Формат видео: AVI
Видео: XviD, 1796 Кбит/с, 720x304, 23.976 fps
Аудио: AC3, 2 ch, 192 Кбит/с, 48.0 KHz
Релиз:

MediaInfo

General
Complete name : G:\Forsaken.2016.HDRip_KypoJIecoB.avi
Format : AVI
Format/Info : Audio Video Interleave
File size : 1.25 GiB
Duration : 1h 29mn
Overall bit rate : 1 997 Kbps
Video
ID : 0
Format : MPEG-4 Visual
Format profile : Advanced Simple@L5
Format settings, BVOP : 2
Format settings, QPel : No
Format settings, GMC : No warppoints
Format settings, Matrix : Default (H.263)
Codec ID : XVID
Codec ID/Hint : XviD
Duration : 1h 29mn
Bit rate : 1 796 Kbps
Width : 720 pixels
Height : 304 pixels
Display aspect ratio : 2.35:1
Frame rate : 23.976 fps
Color space : YUV
Chroma subsampling : 4:2:0
Bit depth : 8 bits
Scan type : Progressive
Compression mode : Lossy
Bits/(Pixel*Frame) : 0.342
Stream size : 1.12 GiB (90%)
Writing library : XviD 66
Audio
ID : 1
Format : AC-3
Format/Info : Audio Coding 3
Mode extension : CM (complete main)
Format settings, Endianness : Big
Codec ID : 2000
Duration : 1h 29mn
Bit rate mode : Constant
Bit rate : 192 Kbps
Channel(s) : 2 channels
Channel positions : Front: L R
Sampling rate : 48.0 KHz
Compression mode : Lossy
Stream size : 123 MiB (10%)
Alignment : Split accross interleaves
Interleave, duration : 42 ms (1.00 video frame)
Interleave, preload duratio : 500 ms

Скриншот c названием фильма

Скриншоты

[Профиль] [ЛС]
Кто просматривает тему:

Форум Тема Автор Размер
Фильмы 2016 года Отвергнутая / Forsaken (2016) HDRip от кинонавсе100 | L1 достали все 1.25 GB
Показать сообщения:    

Текущее время: Сегодня 15:58

Часовой пояс: GMT



Вы не можете начинать темы
Вы не можете отвечать на сообщения
Вы не можете редактировать свои сообщения
Вы не можете удалять свои сообщения
Вы не можете голосовать в опросах
Вы не можете прикреплять файлы к сообщениям
Вы не можете скачивать файлы