Отбор / The Culling (Растем Бренемен / Rustam Branaman) [2015, США, триллер, WEB-DLRip] VO (datynet)

 
Автор Сообщение

TorrentFilm ®

Пол:

Стаж: 2 года

Сообщений: 7741



Награды: Нет

Торрент-статистика

Создавать темы 11-Июн-2015 00:04

[Цитировать]

Отбор / The Culling
Страна: США
Жанр: триллер
Год выпуска: 2015
Продолжительность: 01:21:55
Перевод: Одноголосый закадровый datynet
Cубтитры: нет
Оригинальная аудиодорожка: нет
Режиссер: Растем Бренемен / Rustam Branaman
В ролях: Джереми Самптер, Элизабет Дипринсио, Бретт Даверн, Крис Кой, Линси Годфри, Вирджиния Уильямс, Джонатон Шек, Харли Грэхэм
Описание: Пятеро молодых людей выезжают за город чтобы посетить концерт. Однако их планы меняются кардинальным образом когда друзья находят на парковке семилетнюю девочку, которая по непонятным причинам осталась одна. Проводив девочку к одиноко стоящему дому они оказываются вынуждены остаться там на ночь, что вовсе не предусмотрело некое зло, обитающее в доме, зло, с которым и предстоит столкнуться ребятам.
Сэмпл: http://multi-up.com/1052553
Качество видео: WEB-DLRip
Формат видео: AVI
Видео: Xvid 720x400 23.98fps 1 992 Kbps
Аудио: Dolby AC3 48000Hz 6ch 384kbps

MediaInfo

Format : AVI
Format/Info : Audio Video Interleave
File size : 1.36 GiB
Duration : 1h 21mn
Overall bit rate : 2 385 Kbps
Writing application : VirtualDubMod 1.5.10.3 | www.virtualdub-fr.org || (build 2550/release)
Writing library : VirtualDubMod build 2550/release
Video
ID : 0
Format : MPEG-4 Visual
Format profile : Advanced Simple@L5
Format settings, BVOP : Yes
Format settings, QPel : No
Format settings, GMC : No warppoints
Format settings, Matrix : Custom
Codec ID : XVID
Codec ID/Hint : XviD
Duration : 1h 21mn
Bit rate : 1 992 Kbps
Width : 720 pixels
Height : 400 pixels
Display aspect ratio : 16:9
Frame rate : 23.976 fps
Resolution : 8 bits
Colorimetry : 4:2:0
Scan type : Progressive
Bits/(Pixel*Frame) : 0.288
Stream size : 1.14 GiB (84%)
Writing library : XviD 73
Audio
ID : 1
Format : AC-3
Format/Info : Audio Coding 3
Codec ID : 2000
Duration : 1h 21mn
Bit rate mode : Constant
Bit rate : 384 Kbps
Channel(s) : 6 channels
Channel positions : Front: L C R, Surround: L R, LFE
Sampling rate : 48.0 KHz
Stream size : 225 MiB (16%)
Alignment : Split accross interleaves
Interleave, duration : 42 ms (1.00 video frame)
Interleave, preload duration : 500 ms

Скриншот c названием фильма

Скриншоты

[Профиль] [ЛС]
Кто просматривает тему:

Форум Тема Автор Размер
Cборники 70х-80х-90х (Ретро) (Pop, Dance, Disco, Retro) VA - Авторадио. Отборный хит 80-90х Vol.2 - 2014, MP3, 128 kbps Magnat 700 MB
Фантастика и фэнтези Евгения Гордеева – Естественный отбор (2016) MP3 Swager 626 MB
Фильмы (HD Rips | 720p, 1080p) Естественный отбор / Natural Selection (2016) WEB-DL 720p | L Russian Mafia 3.2 GB
Фильмы 2016 года Естественный отбор / Natural Selection (2016) WEB-DLRip | L Russian Mafia 1.37 GB
Фильмы 2010 года Естественный отбор / Опасные игры / Jeux dangereux / Selection naturelle / Natural Selection (Режи Мюссе / Regis Musset) [2010, Франция, психологический триллер, DVB] Original (Fre) + Sub (Rus, Eng,... TorrentFilm 2.22 GB
Фильмы 2015 года Отбор / The Culling (Растем Бренемен) [2015, Триллер] WEB-DLRip | L1 BOSS 1.36 GB
Футбол Футбол. Чемпионат Европы 2016 / Отборочный турнир / Группа C / 9-й тур / Испания — Люксембург [09.10] (2015) HDTV 1080i Russian Mafia 9.3 GB
Футбол Футбол. Чемпионат Европы 2016 / Отборочный турнир / Группа C / 9-й тур / Испания — Люксембург [09.10] (2015) HDTVRip 720p | 50fps Russian Mafia 3.12 GB
Показать сообщения:    

Текущее время: Сегодня 22:41

Часовой пояс: GMT



Вы не можете начинать темы
Вы не можете отвечать на сообщения
Вы не можете редактировать свои сообщения
Вы не можете удалять свои сообщения
Вы не можете голосовать в опросах
Вы не можете прикреплять файлы к сообщениям
Вы не можете скачивать файлы