Остывший след / Cold trail (Бьёрн Бьёрнссон / Björn Brynjúlfur Björnsson) [2006, Исландия, Дания, детектив, триллер, криминал, DVDRip-AVC] VO (Project Web Money) + Original + Sub Rus

 
Автор Сообщение

TorrentFilm ®

Пол:

Стаж: 2 года

Сообщений: 7741



Награды: Нет

Торрент-статистика

Создавать темы 04-Сен-2015 00:09

[Цитировать]

Остывший след / Холодный след / Cold trail
Страна: Исландия, Дания
Жанр: детектив, триллер, криминал
Год выпуска: 2006
Продолжительность: 01:34:50
Перевод: Одноголосый закадровый Project_Web_Money по переводу Юлии Ст.
Cубтитры: русские
Оригинальная аудиодорожка: исландский
Режиссер: Бьёрн Бьёрнссон / Björn Brynjúlfur Björnsson
В ролях: Трёстур Лео Гуннарссон, Анита Бриэм, Эльва Оск Олафсдоттир, Хельги Бьёрнссон, Харальд Харальдссон, Сольвейг Гудмундсдоттир, Хильмир Снэр Гуднасон, Бьярни Гримссон, Стефан Йонссон, Ларс Брюгманн, Фридрик Оддссон
Описание: На плотине в отдалённой области Исландии в несчастном случае погиб охранник. Журналиста Бальдура не интересовала эта история — до тех пор, пока он не узнаёт от матери, что погибший был его биологическим отцом. Чтобы разобраться в произошедшем, Бальдур под видом нового охранника отправляется на место событий. Ему предстоит узнать, что же произошло там на самом деле...
Неплохой детектив на фоне потрясающих пейзажей!!!

Доп. информация: Огромное Спасибо за перевод Юлии Ст.,а за рип С.Белькову!!!

Сэмпл: http://multi-up.com/1064137
Качество видео: DVDRip-AVC
Формат видео: MKV
Видео: H.264, 720x554@1024x554, 25 fps, 2106 kbps 0.211 bit/pixel
Аудио: 48 kHz, AC3 Dolby Digital, 3/2 (L,C,R,l,r) + LFE ch, ~448 kbps VO Project_Web_Money
Аудио 2: 48 kHz, AC3 Dolby Digital, 3/2 (L,C,R,l,r) + LFE ch, ~448 kbps original
Формат субтитров: softsub (SRT) (Юлия Ст.)

MediaInfo

Остывший_след_VO_Project_Web_Money+SUB.mkv
Формат : Matroska
Версия формата : Version 2
Размер файла : 2,03 Гбайт
Продолжительность : 1 ч. 34 м.
Общий поток : 3063 Кбит/сек
Дата кодирования : UTC 2015-08-27 07:03:59
Программа кодирования : mkvmerge v5.0.1 ('Es ist Sommer') built on Oct 9 2011 11:55:43
Библиотека кодирования : libebml v1.2.2 + libmatroska v1.3.0
Видео
Идентификатор : 1
Формат : AVC
Формат/Информация : Advanced Video Codec
Профиль формата : High@L3.1
Параметр CABAC формата : Да
Параметр ReFrames формата : 9 кадров
Идентификатор кодека : V_MPEG4/ISO/AVC
Продолжительность : 1 ч. 34 м.
Битрейт : 2106 Кбит/сек
Ширина : 720 пикс.
Высота : 554 пикс.
Соотношение сторон : 16:9
Частота кадров : 25,000 кадр/сек
Цветовое пространство : YUV
Подвыборка цветности : 4:2:0
Битовая глубина : 8 бит
Тип развёртки : Прогрессивная
Бит/(Пиксели*Кадры) : 0.211
Размер потока : 1,40 Гбайт (69%)
Библиотека кодирования : x264 core 120
Настройки программы : cabac=1 / ref=9 / deblock=1:-3:-3 / analyse=0x3:0x133 / me=umh / subme=9 / psy=1 / psy_rd=1.00:0.00 / mixed_ref=1 / me_range=24 / chroma_me=1 / trellis=2 / 8x8dct=1 / cqm=0 / deadzone=21,11 / fast_pskip=0 / chroma_qp_offset=-2 / threads=6 / sliced_threads=0 / nr=0 / decimate=1 / interlaced=0 / bluray_compat=0 / constrained_intra=0 / bframes=6 / b_pyramid=2 / b_adapt=2 / b_bias=0 / direct=3 / weightb=1 / open_gop=0 / weightp=2 / keyint=250 / keyint_min=25 / scenecut=40 / intra_refresh=0 / rc_lookahead=60 / rc=crf / mbtree=1 / crf=19.0 / qcomp=0.60 / qpmin=3 / qpmax=69 / qpstep=4 / ip_ratio=1.40 / aq=1:1.00
Язык : English
Основные цвета : BT.601-6 525, BT.1358 525, BT.1700 NTSC, SMPTE 170M
Характеристики трансфера : BT.709-5, BT.1361
Коэффициенты матрицы : BT.601-6 525, BT.1358 525, BT.1700 NTSC, SMPTE 170M
Аудио #1
Идентификатор : 2
Формат : AC-3
Формат/Информация : Audio Coding 3
Расширение режима : CM (complete main)
Идентификатор кодека : A_AC3
Продолжительность : 1 ч. 34 м.
Вид битрейта : Постоянный
Битрейт : 448 Кбит/сек
Каналы : 6 каналов
Расположение каналов : Front: L C R, Side: L R, LFE
Частота : 48,0 КГц
Битовая глубина : 16 бит
Метод сжатия : С потерями
Размер потока : 304 Мбайт (15%)
Заголовок : VO_Project_Web_Money
Язык : Russian
Аудио #2
Идентификатор : 3
Формат : AC-3
Формат/Информация : Audio Coding 3
Расширение режима : CM (complete main)
Идентификатор кодека : A_AC3
Продолжительность : 1 ч. 34 м.
Вид битрейта : Постоянный
Битрейт : 448 Кбит/сек
Каналы : 6 каналов
Расположение каналов : Front: L C R, Side: L R, LFE
Частота : 48,0 КГц
Битовая глубина : 16 бит
Метод сжатия : С потерями
Размер потока : 304 Мбайт (15%)
Текст
Идентификатор : 4
Формат : UTF-8
Идентификатор кодека : S_TEXT/UTF8
Идентификатор кодека/Информация : UTF-8 Plain Text
Язык : Russian
Меню
00:00:00.000 : en:Chapter 1
00:06:50.680 : en:Chapter 2
00:13:13.560 : en:Chapter 3
00:17:21.720 : en:Chapter 4
00:26:32.200 : en:Chapter 5
00:36:19.640 : en:Chapter 6
00:44:29.080 : en:Chapter 7
00:51:02.760 : en:Chapter 8
01:00:19.680 : en:Chapter 9
01:06:33.360 : en:Chapter 10
01:14:14.240 : en:Chapter 11
01:20:18.520 : en:Chapter 12
01:32:16.520 : en:Chapter 13

Скриншот c названием фильма

Скриншоты

[Профиль] [ЛС]
Кто просматривает тему:

Показать сообщения:    

Текущее время: Сегодня 20:42

Часовой пояс: GMT



Вы не можете начинать темы
Вы не можете отвечать на сообщения
Вы не можете редактировать свои сообщения
Вы не можете удалять свои сообщения
Вы не можете голосовать в опросах
Вы не можете прикреплять файлы к сообщениям
Вы не можете скачивать файлы