Остров / The Island (2005) BDRip 1080p

 
Автор Сообщение

Russian Mafia ®

Пол:

Стаж: 1 год 8 месяцев

Сообщений: 4257



Награды: 10 (Подробнее)

Mega Seeder 4 (Количество: 1) Mega Seeder 3 (Количество: 1) Top Releaser 2 (Количество: 1)
Торрент-статистика

Создавать темы 12-Окт-2015 09:45

[Цитировать]

Информация о фильме
Название: Остров
Оригинальное название: The Island
Год выхода: 2005
Жанр: фантастика, боевик, триллер
Режиссер: Майкл Бэй
В ролях: Юэн МакГрегор, Скарлетт Йоханссон, Джимон Хонсу, Шон Бин, Стив Бушеми, Майкл Кларк Дункан, Итэн Филлипс, Брайан Степанек, Ноа Тишби, Шиван Флинн
О фильме: Линкольн Шесть-Эхо — житель на вид утопического, но охраняемого поселения середины XXI века. Как и все обитатели этого тщательно контролируемого пространства, Линкольн надеется оказаться среди тех, кого отправят на «Остров» — якобы последнее незагрязненное место на планете. Но очень скоро Линкольн обнаруживает, что абсолютно всё, что касается его существования — ложь.

Выпущено: DreamWorks SKG
Продолжительность: 02:16:04
Перевод: Дублированный (лицензия)
Файл
Кодек: x264
Качество: BDRip (источник: Blu-ray Disc)
Видео: 1920x800 (2,40:1), 23.976 fps, 7077 kbps
Аудио #1: AC-3, 6 ch, 640 kbps (Rus)
Аудио #2: AC-3, 6 ch, 448 kbps (Eng)
Субтитры: Русские (форс,полные), Английские
Скачать: сэмпл
Скриншоты

MI

Общее
Уникальный идентификатор : 246658858463466175254095234708349906011 (0xB990C4A5E4708166833A9ADEE013EC5B)
Полное имя : The.Island.2005.BDRip.1080p.Rus.Eng.mkv
Формат : Matroska
Версия формата : Version 2
Размер файла : 7,76 Гбайт
Продолжительность : 2 ч. 16 м.
Общий поток : 8168 Кбит/сек
Название фильма : Остров / The Island (2005)
Дата кодирования : UTC 2012-10-11 15:00:20
Программа кодирования : mkvmerge v5.8.0 ('No Sleep / Pillow') built on Sep 2 2012 15:37:04
Библиотека кодирования : libebml v1.2.3 + libmatroska v1.3.0
Видео
Идентификатор : 1
Формат : AVC
Формат/Информация : Advanced Video Codec
Профиль формата : High@L4.1
Параметр CABAC формата : Да
Параметр ReFrames формата : 5 кадров
Идентификатор кодека : V_MPEG4/ISO/AVC
Продолжительность : 2 ч. 16 м.
Битрейт : 7077 Кбит/сек
Ширина : 1920 пикселей
Высота : 800 пикселей
Соотношение сторон : 2,40:1
Частота кадров : 23,976 кадра/сек
Цветовое пространство : YUV
Субдискретизация насыщенности : 4:2:0
Битовая глубина : 8 бит
Тип развёртки : Прогрессивная
Бит/(Пиксели*Кадры) : 0.192
Размер потока : 6,58 Гбайт (85%)
Заголовок : Release by AlexKa
Библиотека кодирования : x264 core 128 r2216 198a7ea
Настройки программы : cabac=1 / ref=5 / deblock=1:0:0 / analyse=0x3:0x133 / me=umh / subme=10 / psy=1 / psy_rd=1.00:0.10 / mixed_ref=1 / me_range=48 / chroma_me=1 / trellis=2 / 8x8dct=1 / cqm=0 / deadzone=21,11 / fast_pskip=0 / chroma_qp_offset=-3 / threads=12 / lookahead_threads=2 / sliced_threads=0 / nr=0 / decimate=0 / interlaced=0 / bluray_compat=0 / constrained_intra=0 / bframes=5 / b_pyramid=2 / b_adapt=2 / b_bias=0 / direct=3 / weightb=1 / open_gop=0 / weightp=2 / keyint=240 / keyint_min=23 / scenecut=40 / intra_refresh=0 / rc=2pass / mbtree=0 / bitrate=7077 / ratetol=1.0 / qcomp=0.60 / qpmin=0 / qpmax=69 / qpstep=4 / cplxblur=20.0 / qblur=0.5 / ip_ratio=1.40 / pb_ratio=1.30 / aq=1:0.80
Язык : English
Аудио #1
Идентификатор : 2
Формат : AC-3
Формат/Информация : Audio Coding 3
Расширение режима : CM (complete main)
Идентификатор кодека : A_AC3
Продолжительность : 2 ч. 16 м.
Вид битрейта : Постоянный
Битрейт : 640 Кбит/сек
Каналы : 6 каналов
Расположение каналов : Front: L C R, Side: L R, LFE
Частота : 48,0 КГц
Битовая глубина : 16 бит
Метод сжатия : С потерями
Размер потока : 623 Мбайт (8%)
Заголовок : Rus
Язык : Russian
Аудио #2
Идентификатор : 3
Формат : AC-3
Формат/Информация : Audio Coding 3
Расширение режима : CM (complete main)
Идентификатор кодека : A_AC3
Продолжительность : 2 ч. 16 м.
Вид битрейта : Постоянный
Битрейт : 448 Кбит/сек
Каналы : 6 каналов
Расположение каналов : Front: L C R, Side: L R, LFE
Частота : 48,0 КГц
Битовая глубина : 16 бит
Метод сжатия : С потерями
Размер потока : 436 Мбайт (5%)
Заголовок : Eng
Язык : English
Текст #1
Идентификатор : 4
Формат : UTF-8
Идентификатор кодека : S_TEXT/UTF8
Идентификатор кодека/Информация : UTF-8 Plain Text
Заголовок : Rus forced
Язык : Russian
Текст #2
Идентификатор : 5
Формат : UTF-8
Идентификатор кодека : S_TEXT/UTF8
Идентификатор кодека/Информация : UTF-8 Plain Text
Заголовок : Rus
Язык : Russian
Текст #3
Идентификатор : 6
Формат : UTF-8
Идентификатор кодека : S_TEXT/UTF8
Идентификатор кодека/Информация : UTF-8 Plain Text
Заголовок : Eng
Язык : English
Меню
00:00:00.000 : :Chapter 01
00:10:36.594 : :Chapter 02
00:16:36.829 : :Chapter 03
00:20:32.606 : :Chapter 04
00:27:17.761 : :Chapter 05
00:32:15.391 : :Chapter 06
00:41:35.993 : :Chapter 07
00:50:43.290 : :Chapter 08
00:56:33.389 : :Chapter 09
01:05:39.226 : :Chapter 10
01:11:58.939 : :Chapter 11
01:18:32.207 : :Chapter 12
01:28:36.436 : :Chapter 13
01:34:40.925 : :Chapter 14
01:40:26.729 : :Chapter 15
01:46:44.564 : :Chapter 16
01:53:10.325 : :Chapter 17
01:58:47.995 : :Chapter 18
02:03:24.063 : :Chapter 19
02:09:53.744 : :Chapter 20
02:16:03.947 : :Chapter 21
[Профиль] [ЛС]
Кто просматривает тему:

Форум Тема Автор Размер
Rock (Rock,Punk Rock)КняZz - Магия Калиостро (2014) [FLAC (image+cue),Lossless] sergej644 363 MB
BBC BBC: Как построить средневековый замок / Secrets of the Castle with Ruth, Peter and Tom [серии 1-5 из 5] (Стюарт Эллиотт) [2014 г., Документальный, постановочный, научно-познавательный, история,... skorpionN 6.61 GB
Документальные HD Discovery: Загадочные животные острова Джао / The Secret Creatures of Jao / 7 серий из 7 [2009, Документальный, познавательный, HDTV 1080i] TorrentFilm 10.05 GB
Документальные HD Discovery: Загадочные животные острова Джао / The Secret Creatures of Jao / 7 серий из 7 [2009, Документальный, познавательный, HDTVRip 720p] TorrentFilm 4.84 GB
Документальные HD Discovery: Смертельные острова / Deadly Islands / 2 эпизода (6) [2014, Документальный, познавательный, природа, HDTV 1080i] TorrentFilm 5.86 GB
Документальные HD Discovery: Смертельные острова / Deadly Islands / 2 эпизода (6) [2014, Документальный, познавательный, природа, HDTVRip 720p] TorrentFilm 2.81 GB
History History: Проклятие острова Оук (сезон 2) / The Curse of Oak Island [2014, Познавательный, History Channel HD, DVB] TorrentFilm 4.77 GB
Nat Geo Wild Nat Geo Wild: Дикие острова: Невиданные острова / Unseen Islands [сезон 1 серии 1-2 из 2] (Stewart McPherson) [2015 г., Документальный, научно-познавательный, HDTVRip 720p] skorpionN 3.19 GB
Показать сообщения:    

Текущее время: Сегодня 06:08

Часовой пояс: GMT



Вы не можете начинать темы
Вы не можете отвечать на сообщения
Вы не можете редактировать свои сообщения
Вы не можете удалять свои сообщения
Вы не можете голосовать в опросах
Вы не можете прикреплять файлы к сообщениям
Вы не можете скачивать файлы