Остров сокровищ / L' Ile aux Tresors (2007) BDRip 720p от Koenig | D

 
Автор Сообщение

Russian Mafia ®

Пол:

Стаж: 1 год 8 месяцев

Сообщений: 4257



Награды: 10 (Подробнее)

Mega Seeder 2 (Количество: 1) Mega Seeder 4 (Количество: 1) Mega Seeder 5 (Количество: 1)
Торрент-статистика

Создавать темы 03-Авг-2016 17:36

[Цитировать]

Информация о фильме
Название: Остров сокровищ
Оригинальное название: L' Ile aux Tresors
Год выхода: 2007
Жанр: Комедия, приключения
Режиссер: Ален Берберян
В ролях: Жерар Жюньо, Элис Тальони, Жан-Поль Рув, Винсент Ротье, Майкл Калкин, Сирилл Элдин, Франсуа Леванталь, Стефан Мецгер, Чике Оконкво, Джон Радо, Оливье Шнайдер, Ласло Сили, Тамаш Варга, Альберт Голдберг, Дидье Фламан, Тивадар Тёрёк, Паскаль Геган, Жан-Христоф Гербет, Николас Хакенберг
О фильме:
Остров сокровищ от Берберяна открывается сценой, в которой вдребезги пьяный доктор Ливси после кровавого боя отрезает Сильверу совсем не ту конечность, в результате чего тот и оказывается одноногим — и это только начало! Любопытно и то, что эсквайр Трелони по Берберяну оказывается женщиной…
Страна: Франция, Великобритания, Венгрия
Студия: FIT Productions, Studio Eight Productions, ASP
Продолжительность: 01:39:16
Перевод: Дублированный
Файл
Качество: BDRip 720p
Видео: MPEG-4 AVC, 5400 Кбит/с, 1280x544, 23.976 кадр/с
Аудио #1: AC3, 6 ch, 448 Кбит/с | Русский
Аудио #2: AC3, 6 ch, 448 Кбит/с | Французский

MediaInfo

Общее
Уникальный идентификатор : 220657702152529439556762499019864707365 (0xA60120AA9FE0D5CAB778174AD72E9125)
Полное имя : L.Ile.Aux.Tresors.2007.BDRip.720p.mkv
Формат : Matroska
Версия формата : Version 4 / Version 2
Размер файла : 4,37 Гбайт
Продолжительность : 1 ч. 39 м.
Общий поток : 6299 Кбит/сек
Название фильма : L'?le aux tr?sors
Режиссёр : Alain Berb?rian
Дата кодирования : UTC 2016-08-03 15:50:29
Программа кодирования : mkvmerge v9.2.0 ('Photograph') 32bit
Библиотека кодирования : libebml v1.3.3 + libmatroska v1.4.4
Attachements : cover.jpg
Release : Koenig
DURATION : 01:39:16.992000000
NUMBER_OF_FRAMES : 186156
NUMBER_OF_BYTES : 333591552
_STATISTICS_WRITING_APP : mkvmerge v9.2.0 ('Photograph') 32bit
_STATISTICS_WRITING_DATE_UTC : 2016-08-03 15:50:29
_STATISTICS_TAGS : BPS DURATION NUMBER_OF_FRAMES NUMBER_OF_BYTES
Видео
Идентификатор : 1
Формат : AVC
Формат/Информация : Advanced Video Codec
Профиль формата : High@L4.1
Параметр CABAC формата : Да
Параметр ReFrames формата : 9 кадров
Идентификатор кодека : V_MPEG4/ISO/AVC
Продолжительность : 1 ч. 39 м.
Битрейт : 5401 Кбит/сек
Ширина : 1280 пикселей
Высота : 544 пикселя
Соотношение сторон : 2,35:1
Режим частоты кадров : Постоянный
Частота кадров : 23,976 кадра/сек
Цветовое пространство : YUV
Субдискретизация насыщенности : 4:2:0
Битовая глубина : 8 бит
Тип развёртки : Прогрессивная
Бит/(Пиксели*Кадры) : 0.324
Размер потока : 3,66 Гбайт (84%)
Библиотека кодирования : x264 core 148 r2692 64f4e24
Настройки программы : cabac=1 / ref=9 / deblock=1:-3:-3 / analyse=0x3:0x133 / me=umh / subme=10 / psy=1 / psy_rd=1.00:0.00 / mixed_ref=1 / me_range=32 / chroma_me=1 / trellis=2 / 8x8dct=1 / cqm=0 / deadzone=21,11 / fast_pskip=0 / chroma_qp_offset=-2 / threads=3 / lookahead_threads=1 / sliced_threads=0 / nr=0 / decimate=1 / interlaced=0 / bluray_compat=0 / constrained_intra=0 / bframes=11 / b_pyramid=2 / b_adapt=2 / b_bias=0 / direct=3 / weightb=1 / open_gop=0 / weightp=2 / keyint=240 / keyint_min=23 / scenecut=40 / intra_refresh=0 / rc_lookahead=40 / rc=2pass / mbtree=1 / bitrate=5401 / ratetol=1.0 / qcomp=0.60 / qpmin=10 / qpmax=51 / qpstep=4 / cplxblur=20.0 / qblur=0.5 / vbv_maxrate=50000 / vbv_bufsize=62500 / nal_hrd=none / filler=0 / ip_ratio=1.40 / aq=1:1.00
Default : Да
Forced : Нет
Аудио #1
Идентификатор : 2
Формат : AC-3
Формат/Информация : Audio Coding 3
Расширение режима : CM (complete main)
Параметр Endianness формата : Big
Идентификатор кодека : A_AC3
Продолжительность : 1 ч. 39 м.
Вид битрейта : Постоянный
Битрейт : 448 Кбит/сек
Каналы : 6 каналов
Расположение каналов : Front: L C R, Side: L R, LFE
Частота : 48,0 КГц
Метод сжатия : С потерями
Размер потока : 318 Мбайт (7%)
Заголовок : DUB
Язык : Russian
Default : Да
Forced : Нет
Аудио #2
Идентификатор : 3
Формат : AC-3
Формат/Информация : Audio Coding 3
Расширение режима : CM (complete main)
Параметр Endianness формата : Big
Идентификатор кодека : A_AC3
Продолжительность : 1 ч. 39 м.
Вид битрейта : Постоянный
Битрейт : 448 Кбит/сек
Каналы : 6 каналов
Расположение каналов : Front: L C R, Side: L R, LFE
Частота : 48,0 КГц
Метод сжатия : С потерями
Размер потока : 318 Мбайт (7%)
Язык : French
Default : Нет
Forced : Нет

Скриншоты


[Профиль] [ЛС]
Кто просматривает тему:

Форум Тема Автор Размер
Rock (Rock,Punk Rock)КняZz - Магия Калиостро (2014) [FLAC (image+cue),Lossless] sergej644 363 MB
BBC BBC: Как построить средневековый замок / Secrets of the Castle with Ruth, Peter and Tom [серии 1-5 из 5] (Стюарт Эллиотт) [2014 г., Документальный, постановочный, научно-познавательный, история,... skorpionN 6.61 GB
Документальные HD Discovery: Загадочные животные острова Джао / The Secret Creatures of Jao / 7 серий из 7 [2009, Документальный, познавательный, HDTV 1080i] TorrentFilm 10.05 GB
Документальные HD Discovery: Загадочные животные острова Джао / The Secret Creatures of Jao / 7 серий из 7 [2009, Документальный, познавательный, HDTVRip 720p] TorrentFilm 4.84 GB
Документальные HD Discovery: Смертельные острова / Deadly Islands / 2 эпизода (6) [2014, Документальный, познавательный, природа, HDTV 1080i] TorrentFilm 5.86 GB
Документальные HD Discovery: Смертельные острова / Deadly Islands / 2 эпизода (6) [2014, Документальный, познавательный, природа, HDTVRip 720p] TorrentFilm 2.81 GB
History History: Проклятие острова Оук (сезон 2) / The Curse of Oak Island [2014, Познавательный, History Channel HD, DVB] TorrentFilm 4.77 GB
Nat Geo Wild Nat Geo Wild: Дикие острова: Невиданные острова / Unseen Islands [сезон 1 серии 1-2 из 2] (Stewart McPherson) [2015 г., Документальный, научно-познавательный, HDTVRip 720p] skorpionN 3.19 GB
Показать сообщения:    

Текущее время: Сегодня 18:51

Часовой пояс: GMT



Вы не можете начинать темы
Вы не можете отвечать на сообщения
Вы не можете редактировать свои сообщения
Вы не можете удалять свои сообщения
Вы не можете голосовать в опросах
Вы не можете прикреплять файлы к сообщениям
Вы не можете скачивать файлы