Остров сокровищ (1988) DVD-Remux | Реставрация

 
Автор Сообщение

достали все ®

Пол:

Стаж: 2 года 3 месяца

Сообщений: 6778



Награды: 12 (Подробнее)

Top Releaser 2 (Количество: 1) Mega Seeder 3 (Количество: 1) Mega Seeder 4 (Количество: 1)
Торрент-статистика

Создавать темы 19-Июн-2015 07:55

[Цитировать]

Остров сокровищ
Год выпуска: 1988
Страна: СССР
Жанр: Мультфильм, приключения, комедия, мюзикл
Длительность: 01:46:50
Перевод: Не требуется
Субтитры: Нет
Режиссёр: Давид Черкасский
В ролях: Владимир Заднепровский, Евгений Паперный, Армен Джигарханян, Юрий Яковлев, Валерий Бессараб, Борис Вознюк, Георгий Кишко, Валерий Чигляев, Виктор Андриенко, Григорий Толчинский
Описание: Шхуна «Испаньола» бороздит морские просторы в поисках острова, на котором спрятаны легендарные сокровища капитана пиратов Флинта. На корабле зреет заговор. Разбойники во главе с одноногим Джоном Сильвером, кажется, близки к цели…
-"Крупный план"- полная реставрация изображения и звука.
-
Качество: DVD-Remux
Формат: MKV
Видео кодек: MPEG2
Аудио кодек: AC3
Видео: 3879 kbps, 720x576, 25.000 fps
Аудио #1: AC3, 448 kbps, 6 ch, 48.0 khz
Аудио #1: AC3, 224 kbps, 1 ch, 48.0 khz

Скриншоты:

Ми:

General
Unique ID : 176718803508014642104240414088579010399 (0x84F2CDB4E0E5B004A484C73938A04F5F)
Complete name : C:UsersG5030DesktopОстров сокровищ.mkv
Format : Matroska
Format version : Version 4 / Version 2
File size : 3.47 GiB
Duration : 1h 46mn
Overall bit rate : 4 643 Kbps
Encoded date : UTC 2015-06-17 18:57:13
Writing application : mkvmerge v7.9.0 ('Birds') 64bit
Writing library : libebml v1.3.1 + libmatroska v1.4.2
DURATION : 01:46:50.048000000
NUMBER_OF_FRAMES : 200314
NUMBER_OF_BYTES : 179481344
_STATISTICS_WRITING_APP : mkvmerge v7.9.0 ('Birds') 64bit
_STATISTICS_WRITING_DATE_UTC : 2015-06-17 18:57:13
_STATISTICS_TAGS : BPS DURATION NUMBER_OF_FRAMES NUMBER_OF_BYTES
Video
ID : 1
Format : MPEG Video
Format version : Version 2
Format profile : Main@Main
Format settings, BVOP : No
Format settings, Matrix : Custom
Codec ID : V_MPEG2
Codec ID/Info : MPEG 1 or 2 Video
Duration : 1h 46mn
Bit rate : 3 879 Kbps
Maximum bit rate : 8 708 Kbps
Width : 720 pixels
Height : 576 pixels
Display aspect ratio : 4:3
Frame rate mode : Constant
Frame rate : 25.000 fps
Standard : PAL
Color space : YUV
Chroma subsampling : 4:2:0
Bit depth : 8 bits
Scan type : Interlaced
Scan order : Top Field First
Compression mode : Lossy
Bits/(Pixel*Frame) : 0.374
Time code of first frame : 00:00:00:01
Time code source : Group of pictures header
Stream size : 2.89 GiB (84%)
Default : Yes
Forced : No
Audio #1
ID : 2
Format : AC-3
Format/Info : Audio Coding 3
Mode extension : CM (complete main)
Format settings, Endianness : Big
Codec ID : A_AC3
Duration : 1h 46mn
Bit rate mode : Constant
Bit rate : 448 Kbps
Channel(s) : 6 channels
Channel positions : Front: L C R, Side: L R, LFE
Sampling rate : 48.0 KHz
Bit depth : 16 bits
Compression mode : Lossy
Delay relative to video : 215ms
Stream size : 342 MiB (10%)
Default : Yes
Forced : No
Audio #2
ID : 3
Format : AC-3
Format/Info : Audio Coding 3
Mode extension : CM (complete main)
Format settings, Endianness : Big
Codec ID : A_AC3
Duration : 1h 46mn
Bit rate mode : Constant
Bit rate : 224 Kbps
Channel(s) : 1 channel
Channel positions : Front: C
Sampling rate : 48.0 KHz
Bit depth : 16 bits
Compression mode : Lossy
Delay relative to video : 217ms
Stream size : 171 MiB (5%)
Default : No
Forced : No
[Профиль] [ЛС]
Показать сообщения:    

Текущее время: Сегодня 12:30

Часовой пояс: GMT



Вы не можете начинать темы
Вы не можете отвечать на сообщения
Вы не можете редактировать свои сообщения
Вы не можете удалять свои сообщения
Вы не можете голосовать в опросах
Вы не можете прикреплять файлы к сообщениям
Вы не можете скачивать файлы