Остров Крым ( 1-21 серии из 21 ) [2014, Россия, Документальный, познавательный, HDTVRip 720p]

 
Автор Сообщение

TorrentFilm ®

Пол:

Стаж: 2 года

Сообщений: 7741



Награды: Нет

Торрент-статистика

Создавать темы 22-Дек-2014 02:00

[Цитировать]

Остров Крым
Год выпуска: 2014
Страна: Россия
Студия: Красный квадрат
Жанр: Документальный, познавательный
Продолжительность: 21 х ~ 00:26:00
Язык: Русский
Режиссёр: Людмила Снигирева, Илья Петров, Андрей Линич
Ведущие: Александр Олешко, Валдис Пельш, Дмитрий Харатьян, Арина Шарапова, Леонид Якубович
Описание: "Остров Крым" - цикл документальных фильмов, которые расскажут об удивительной истории, невероятной природе, уникальных артефактах и достопримечательностях Крымского полуострова. Мы отправимся в путешествие по самым знаковым местам полуострова вместе с ведущими - Александром Олешко, Валдисом Пельшем, Дмитрием Харатьяном, Ариной Шараповой, Геннадием Хазановым и Леонидом Якубовичем. Вместе с ними мы посетим восточный берег Крыма, проедем по южному берегу, доберемся до западного - так называемого Дикого Крыма и узнаем, чем живут центральные районы полуострова...
Качество: HDTVRip (720p)
Формат: MKV
Видео: MPEG-4 AVC, 1280x720, ~ 3150 kbps, 25.000 fps, 0.134 bit/pixel
Аудио: Russian: AC3 5.1, 48 kHz, 384 kbps

Список эпизодов:
1. Ялта
2. Симферополь
3. Коктебель и его окрестности
4. Большая Ялта
5. Гурзуф
6. Севастополь
7. Феодосия
8. Балаклава
9. Евпатория
10. Керчь
11. Алупка
12. Западный берег Крыма
13. Судак
14. Массандра
15. Алушта
16. Бахчисарай
17. Центральный Крым
18. От Коктебеля до Арабатской косы
19. По крымским маршрутам
20. По местам боевой славы Крыма
21. Севастополь в военные годы

MediaInfo

General
Unique ID : 244644688143763469183892975467222682487 (0xB80CDA62587AB187AE12E29AC38E4B77)
Complete name : G:\Остров Крым.2014.x264.HDTVRip.(720p)\6.Севастополь.mkv
Format : Matroska
Format version : Version 4 / Version 2
File size : 671 MiB
Duration : 26mn 41s
Overall bit rate : 3 515 Kbps
Movie name : Crimea island / 2014 / Rip by PowerRock / ExKinoRay
Encoded date : UTC 2014-11-30 14:05:45
Writing application : mkvmerge v6.7.0 ('Back to the Ground') 32bit built on Jan 8 2014 15:03:17
Writing library : libebml v1.3.0 + libmatroska v1.4.1
Video
ID : 1
Format : AVC
Format/Info : Advanced Video Codec
Format profile : High@L4.1
Format settings, CABAC : Yes
Format settings, ReFrames : 7 frames
Codec ID : V_MPEG4/ISO/AVC
Duration : 26mn 41s
Bit rate : 3 129 Kbps
Width : 1 280 pixels
Height : 720 pixels
Display aspect ratio : 16:9
Frame rate mode : Constant
Frame rate : 25.000 fps
Color space : YUV
Chroma subsampling : 4:2:0
Bit depth : 8 bits
Scan type : Progressive
Bits/(Pixel*Frame) : 0.136
Stream size : 585 MiB (87%)
Title : Crimea island
Writing library : x264 core 130 r2273 b3065e6
Encoding settings : cabac=1 / ref=7 / deblock=1:-2:-1 / analyse=0x3:0x133 / me=umh / subme=10 / psy=1 / psy_rd=1.00:0.10 / mixed_ref=1 / me_range=24 / chroma_me=1 / trellis=2 / 8x8dct=1 / cqm=0 / deadzone=21,11 / fast_pskip=0 / chroma_qp_offset=-3 / threads=6 / lookahead_threads=1 / sliced_threads=0 / nr=0 / decimate=1 / interlaced=0 / bluray_compat=0 / constrained_intra=0 / bframes=5 / b_pyramid=2 / b_adapt=2 / b_bias=0 / direct=3 / weightb=1 / open_gop=0 / weightp=2 / keyint=250 / keyint_min=23 / scenecut=40 / intra_refresh=0 / rc_lookahead=50 / rc=2pass / mbtree=1 / bitrate=3129 / ratetol=1.0 / qcomp=0.60 / qpmin=10 / qpmax=51 / qpstep=4 / cplxblur=20.0 / qblur=0.5 / ip_ratio=1.40 / aq=1:1.00
Default : Yes
Forced : No
Audio
ID : 2
Format : AC-3
Format/Info : Audio Coding 3
Mode extension : CM (complete main)
Format settings, Endianness : Big
Codec ID : A_AC3
Duration : 26mn 41s
Bit rate mode : Constant
Bit rate : 384 Kbps
Channel(s) : 6 channels
Channel positions : Front: L C R, Side: L R, LFE
Sampling rate : 48.0 KHz
Bit depth : 16 bits
Compression mode : Lossy
Stream size : 73.3 MiB (11%)
Language : Russian
Default : Yes
Forced : No

Скриншоты



[Профиль] [ЛС]
Кто просматривает тему:

Форум Тема Автор Размер
Rock (Rock,Punk Rock)КняZz - Магия Калиостро (2014) [FLAC (image+cue),Lossless] sergej644 363 MB
BBC BBC: Как построить средневековый замок / Secrets of the Castle with Ruth, Peter and Tom [серии 1-5 из 5] (Стюарт Эллиотт) [2014 г., Документальный, постановочный, научно-познавательный, история,... skorpionN 6.61 GB
Документальные HD Discovery: Загадочные животные острова Джао / The Secret Creatures of Jao / 7 серий из 7 [2009, Документальный, познавательный, HDTV 1080i] TorrentFilm 10.05 GB
Документальные HD Discovery: Загадочные животные острова Джао / The Secret Creatures of Jao / 7 серий из 7 [2009, Документальный, познавательный, HDTVRip 720p] TorrentFilm 4.84 GB
Документальные HD Discovery: Смертельные острова / Deadly Islands / 2 эпизода (6) [2014, Документальный, познавательный, природа, HDTV 1080i] TorrentFilm 5.86 GB
Документальные HD Discovery: Смертельные острова / Deadly Islands / 2 эпизода (6) [2014, Документальный, познавательный, природа, HDTVRip 720p] TorrentFilm 2.81 GB
History History: Проклятие острова Оук (сезон 2) / The Curse of Oak Island [2014, Познавательный, History Channel HD, DVB] TorrentFilm 4.77 GB
Nat Geo Wild Nat Geo Wild: Дикие острова: Невиданные острова / Unseen Islands [сезон 1 серии 1-2 из 2] (Stewart McPherson) [2015 г., Документальный, научно-познавательный, HDTVRip 720p] skorpionN 3.19 GB
Показать сообщения:    

Текущее время: Сегодня 08:28

Часовой пояс: GMT



Вы не можете начинать темы
Вы не можете отвечать на сообщения
Вы не можете редактировать свои сообщения
Вы не можете удалять свои сообщения
Вы не можете голосовать в опросах
Вы не можете прикреплять файлы к сообщениям
Вы не можете скачивать файлы