Остров капитанов / 2 серии (Алексей Соловьев) [1985, Кукольный мультфильм, DVDRip]

 
Автор Сообщение

TorrentFilm ®

Пол:

Стаж: 2 года

Сообщений: 7741



Награды: Нет

Торрент-статистика

Создавать темы 26-Окт-2015 00:11

[Цитировать]

Остров капитанов / 2 серии
Страна: СССР
Жанр: Кукольный мультфильм
Продолжительность: 00:17:48+00:10:19
Год выпуска: 1985
Русские субтитры: нет
Режиссёр: Алексей Соловьев
Роли озвучивали: О.Табаков, Г.Бурков, Г.Бортников, Е.Киндинов, Н.Караченцов, И.Потоцкая, И.Акулова, Е.Васильева, Г.Иванова, И.Муравьева
Описание: О маленьких капитанах, которые победили страшных пиратов.Два маленьких отважных капитана попали на остров, где заправляют страшные и очень кровожадные пираты. Разве можно таких бояться? Можно! Только капитаны ничего не боятся и всегда побеждают!
Доп. информация: ТО«Экран»
Авторы сценария: С.Прокофьева
Оператор: Л.Кольвинковский
Мультипликаторы: О.Дегтярева,В.Кадухин
Художники:Е.Терлеев,К.Инешин
Релиз группы:
Качество: DVDRip
Формат: AVI
Видео: 704x528 (1.33:1), 25 fps, XviD MPEG-4 ~2099 kbps avg, 0.23 bit/pixel
Аудио: 48 kHz, AC3 Dolby Digital, 2/0 (L,R) ch, ~192.00 kbps avg
Субтитры: нет

Подробные технические данные

Format : AVIFormat/Info : Audio Video InterleaveFile size : 293 MiBDuration : 17mn 48sOverall bit rate : 2 302 KbpsWriting application : VirtualDubModRus 1.5.10.2 (build 2542/release)Copyright : Rutracker.orgComment : DVDRip by dvdss
VideoID : 0Format : MPEG-4 VisualFormat profile : Advanced Simple@L5Format settings, BVOP : 2Format settings, QPel : NoFormat settings, GMC : No warppointsFormat settings, Matrix : CustomCodec ID : XVIDCodec ID/Hint : XviDDuration : 17mn 48sBit rate : 2 100 KbpsWidth : 704 pixelsHeight : 528 pixelsDisplay aspect ratio : 5:4Original display aspect ratio : 4:3Frame rate : 25.000 fpsColor space : YUVChroma subsampling : 4:2:0Bit depth : 8 bitsScan type : ProgressiveCompression mode : LossyBits/(Pixel*Frame) : 0.226Stream size : 267 MiB (91%)Writing library : XviD 65
AudioID : 1Format : AC-3Format/Info : Audio Coding 3Mode extension : CM (complete main)Format settings, Endianness : BigCodec ID : 2000Duration : 17mn 48sBit rate mode : ConstantBit rate : 192 KbpsChannel(s) : 2 channelsChannel positions : Front: L RSampling rate : 48.0 KHzBit depth : 16 bitsCompression mode : LossyStream size : 24.5 MiB (8%)Alignment : Aligned on interleavesInterleave, duration : 40 ms (1.00 video frame)Interleave, preload duration : 512 ms

Скриншоты1 серия

2 серия

[Профиль] [ЛС]
Кто просматривает тему:

Форум Тема Автор Размер
Rock (Rock,Punk Rock)КняZz - Магия Калиостро (2014) [FLAC (image+cue),Lossless] sergej644 363 MB
BBC BBC: Как построить средневековый замок / Secrets of the Castle with Ruth, Peter and Tom [серии 1-5 из 5] (Стюарт Эллиотт) [2014 г., Документальный, постановочный, научно-познавательный, история,... skorpionN 6.61 GB
Документальные HD Discovery: Загадочные животные острова Джао / The Secret Creatures of Jao / 7 серий из 7 [2009, Документальный, познавательный, HDTV 1080i] TorrentFilm 10.05 GB
Документальные HD Discovery: Загадочные животные острова Джао / The Secret Creatures of Jao / 7 серий из 7 [2009, Документальный, познавательный, HDTVRip 720p] TorrentFilm 4.84 GB
Документальные HD Discovery: Смертельные острова / Deadly Islands / 2 эпизода (6) [2014, Документальный, познавательный, природа, HDTV 1080i] TorrentFilm 5.86 GB
Документальные HD Discovery: Смертельные острова / Deadly Islands / 2 эпизода (6) [2014, Документальный, познавательный, природа, HDTVRip 720p] TorrentFilm 2.81 GB
History History: Проклятие острова Оук (сезон 2) / The Curse of Oak Island [2014, Познавательный, History Channel HD, DVB] TorrentFilm 4.77 GB
Nat Geo Wild Nat Geo Wild: Дикие острова: Невиданные острова / Unseen Islands [сезон 1 серии 1-2 из 2] (Stewart McPherson) [2015 г., Документальный, научно-познавательный, HDTVRip 720p] skorpionN 3.19 GB
Показать сообщения:    

Текущее время: Сегодня 08:13

Часовой пояс: GMT



Вы не можете начинать темы
Вы не можете отвечать на сообщения
Вы не можете редактировать свои сообщения
Вы не можете удалять свои сообщения
Вы не можете голосовать в опросах
Вы не можете прикреплять файлы к сообщениям
Вы не можете скачивать файлы