Остров динозавров / Dinosaur Island (Матт Друммонд / Matt Drummond) [2014, Австралия, Детский, фантастика, приключения, семейный, HDRip] VO

 
Автор Сообщение

TorrentFilm ®

Пол:

Стаж: 1 год 11 месяцев

Сообщений: 7741



Награды: Нет

Торрент-статистика

Создавать темы 16-Июл-2015 00:09

[Цитировать]

Остров динозавров / Dinosaur Island
Страна: Австралия
Жанр: Детский, фантастика, приключения, семейный
Год выпуска: 2014
Продолжительность: 01:26:43
Перевод: Любительский (одноголосый) (Хихикающий доктор)
Cубтитры: нет
Режиссер: Матт Друммонд / Matt Drummond
В ролях: Дариус Вильямс, Кэйт Расмуссен, Джо Виставеос, Джульет Фредерик, Винсент Навити, Пол Падагас, Николь Ярдли
Описание: Лукас, тринадцатилетний подросток, никак не ожидал больших приключений, отправляясь на очередные каникулы. Но судьба решила по-своему: самолет, на котором он летел, попадает в катастрофу. Очнувшись на странном острове, главный герой с ужасом узнает, что на этом клочке земли обитают доисторические рептилии.
Сэмпл \ Кинопоиск
Качество видео: HDRip
Формат видео: AVI
Видео: 1906 Кбит/сек 720 x 400 (1.800) 23.976
Аудио: AC-3 448 Кбит/сек 6 каналов, 48,0 КГц

MediaInfo

Формат : AVI
Формат/Информация : Audio Video Interleave
Размер файла : 1,37 Гбайт
Продолжительность : 1 ч. 23 м.
Общий поток : 2364 Кбит/сек
Программа кодирования : VirtualDubMod 1.5.10.2 (build 2540/release)
Библиотека кодирования : VirtualDubMod build 2540/release
Правообладатель : ExKinoRay
Видео
Идентификатор : 0
Формат : MPEG-4 Visual
Профиль формата : Advanced Simple@L5
Параметр BVOP формата : 1
Параметр QPel формата : Нет
Параметр GMC формата : Без точки перехода
Параметр матрицы формата : Выборочная
Идентификатор кодека : XVID
Идентификатор кодека/Подсказка : XviD
Продолжительность : 1 ч. 23 м.
Битрейт : 1906 Кбит/сек
Ширина : 720 пикселей
Высота : 400 пикселей
Соотношение сторон : 16:9
Частота кадров : 23,976 кадра/сек
Цветовое пространство : YUV
Субдискретизация насыщенности : 4:2:0
Битовая глубина : 8 бит
Тип развёртки : Прогрессивная
Метод сжатия : С потерями
Бит/(Пиксели*Кадры) : 0.276
Размер потока : 1,11 Гбайт (81%)
Библиотека кодирования : XviD 73
Аудио
Идентификатор : 1
Формат : AC-3
Формат/Информация : Audio Coding 3
Расширение режима : CM (complete main)
Параметр Endianness формата : Big
Идентификатор кодека : 2000
Продолжительность : 1 ч. 23 м.
Вид битрейта : Постоянный
Битрейт : 448 Кбит/сек
Каналы : 6 каналов
Расположение каналов : Front: L C R, Side: L R, LFE
Частота : 48,0 КГц
Битовая глубина : 16 бит
Метод сжатия : С потерями
Размер потока : 266 Мбайт (19%)
Выравнивание : Разделение по промежуткам
Продолжительность промежутка : 42 мс. (1,00 видеокадр)
Время предзагрузки промежутка : 500 мс.
Заголовок : xixidok

Скриншот c названием фильма

Скриншоты

[Профиль] [ЛС]
Кто просматривает тему:

Форум Тема Автор Размер
Rock (Rock,Punk Rock)КняZz - Магия Калиостро (2014) [FLAC (image+cue),Lossless] sergej644 363 MB
BBC BBC: Как построить средневековый замок / Secrets of the Castle with Ruth, Peter and Tom [серии 1-5 из 5] (Стюарт Эллиотт) [2014 г., Документальный, постановочный, научно-познавательный, история,... skorpionN 6.61 GB
Документальные HD Discovery: Загадочные животные острова Джао / The Secret Creatures of Jao / 7 серий из 7 [2009, Документальный, познавательный, HDTV 1080i] TorrentFilm 10.05 GB
Документальные HD Discovery: Загадочные животные острова Джао / The Secret Creatures of Jao / 7 серий из 7 [2009, Документальный, познавательный, HDTVRip 720p] TorrentFilm 4.84 GB
Документальные HD Discovery: Смертельные острова / Deadly Islands / 2 эпизода (6) [2014, Документальный, познавательный, природа, HDTV 1080i] TorrentFilm 5.86 GB
Документальные HD Discovery: Смертельные острова / Deadly Islands / 2 эпизода (6) [2014, Документальный, познавательный, природа, HDTVRip 720p] TorrentFilm 2.81 GB
History History: Проклятие острова Оук (сезон 2) / The Curse of Oak Island [2014, Познавательный, History Channel HD, DVB] TorrentFilm 4.77 GB
Nat Geo Wild Nat Geo Wild: Дикие острова: Невиданные острова / Unseen Islands [сезон 1 серии 1-2 из 2] (Stewart McPherson) [2015 г., Документальный, научно-познавательный, HDTVRip 720p] skorpionN 3.19 GB
Показать сообщения:    

Текущее время: Сегодня 05:01

Часовой пояс: GMT



Вы не можете начинать темы
Вы не можете отвечать на сообщения
Вы не можете редактировать свои сообщения
Вы не можете удалять свои сообщения
Вы не можете голосовать в опросах
Вы не можете прикреплять файлы к сообщениям
Вы не можете скачивать файлы