Острие стрелы / Arrowhead (Джесси О’Брайэн / Jesse O\'Brien) [2016, Австралия, фантастика, боевик, приключения, BDRip] VO (Вадим Назаров)

 
Автор Сообщение

TorrentFilm ®

Пол:

Стаж: 2 года

Сообщений: 7741



Награды: Нет

Торрент-статистика

Создавать темы 26-Фев-2016 00:08

[Цитировать]

Острие стрелы / Arrowhead
Страна: Австралия
Студия: TV1 General Entertainment, GRLA
Жанр: Фантастика, боевик, приключения
Год выпуска: 2016
Продолжительность: 01:38:58
Перевод: Одноголосый (закадровый) Вадим Назаров
Cубтитры: нет
Оригинальная аудиодорожка: нет
Режиссер: Джесси О’Брайэн / Jesse O'Brien
В ролях: Кристофер Кирби, Дэн Мор, Шон Микаллеф, Алейша Грот, Джек Уайлд, Марк Редпаф, Акира Брэдли, Адам Тухи
Описание: Далёкое будущее. На Земле царит диктатура группировки под предводительством Тобиаса Хатча и в планах у него колонизировать Вселенную. Опальному летчику Kею Кортленду в обмен на свободу предложено возглавить захватническую межпланетную операцию на корабле "Arrowhead". Кей вынужден согласиться, но терпит крушение на неизвестной планете, которая лишь на первый взгляд кажется необитаемой...
Дополнительная информация:
Автор релиза - ylnian
Заказ и выкуп голоса Вадима Назарова (перевод - февраль 2016 г.) - ylnian
За наложение чистого голоса и сборку дороги спасибо rammzez
Источник для рипа - BluRay (GER) - Arrowhead.2016.1080p.GER.Blu-ray.AVC.DTS-HD.MA.5.1-BDA


Сэмпл: https://yadi.sk/i/hlqnsuTgpQbwv
Трейлер: https://www.youtube.com/watch?v=qm_urqfCfFY
Качество видео: BDRip
Формат видео: AVI
Видео: XviD, 720x400 (16:9), 24.000 fps, 1661 kbps, 0.240 bit/pixel
Аудио: Русский AC3, 48000 Гц, 6ch, 448 kbps - VO

MediaInfo

Общее
Полное имя : E:\Arrowhead.2016.BDRip-ylnian.avi
Формат : AVI
Формат/Информация : Audio Video Interleave
Размер файла : 1,46 Гбайт
Продолжительность : 1 ч. 38 м.
Общий поток : 2118 Кбит/сек
Программа кодирования : VirtualDubMod 1.5.10.2 (build 2540/release)
Библиотека кодирования : VirtualDubMod build 2540/release
Видео
Идентификатор : 0
Формат : MPEG-4 Visual
Профиль формата : Advanced Simple@L5
Параметр BVOP формата : 1
Параметр QPel формата : Нет
Параметр GMC формата : Без точки перехода
Параметр матрицы формата : Default (MPEG)
Идентификатор кодека : XVID
Идентификатор кодека/Подсказка : XviD
Продолжительность : 1 ч. 38 м.
Битрейт : 1661 Кбит/сек
Ширина : 720 пикселей
Высота : 400 пикселей
Соотношение сторон : 16:9
Частота кадров : 24,000 кадра/сек
Цветовое пространство : YUV
Субдискретизация насыщенности : 4:2:0
Битовая глубина : 8 бит
Тип развёртки : Прогрессивная
Метод сжатия : С потерями
Бит/(Пиксели*Кадры) : 0.240
Размер потока : 1,15 Гбайт (78%)
Библиотека кодирования : XviD 67
Аудио
Идентификатор : 1
Формат : AC-3
Формат/Информация : Audio Coding 3
Расширение режима : CM (complete main)
Параметр Endianness формата : Big
Идентификатор кодека : 2000
Продолжительность : 1 ч. 38 м.
Вид битрейта : Постоянный
Битрейт : 448 Кбит/сек
Каналы : 6 каналов
Расположение каналов : Front: L C R, Side: L R, LFE
Частота : 48,0 КГц
Частота кадров : 31,250 кадров/сек (1536 spf)
Метод сжатия : С потерями
Размер потока : 317 Мбайт (21%)
Выравнивание : Разделение по промежуткам
Продолжительность промежутка : 42 мс. (1,00 видеокадр)
Время предзагрузки промежутка : 500 мс.

Скриншот c названием фильма

Скриншоты

[Профиль] [ЛС]
Показать сообщения:    

Текущее время: Сегодня 05:19

Часовой пояс: GMT



Вы не можете начинать темы
Вы не можете отвечать на сообщения
Вы не можете редактировать свои сообщения
Вы не можете удалять свои сообщения
Вы не можете голосовать в опросах
Вы не можете прикреплять файлы к сообщениям
Вы не можете скачивать файлы