Осторожные козлы (Дмитрий Бабиченко) [1972, Кукольный мультфильм, VHSRip]

 
Автор Сообщение

TorrentFilm ®

Пол:

Стаж: 1 год 11 месяцев

Сообщений: 7741



Награды: Нет

Торрент-статистика

Создавать темы 02-Янв-2016 00:06

[Цитировать]

Осторожные козлы
Страна: СССР
Жанр: Кукольный мультфильм
Продолжительность: 00:04:46
Год выпуска: 1972
Русские субтитры: нет
Режиссёр: Дмитрий Бабиченко
Описание: О бюрократах, для которых бумажная инструкция важнее здравого смысла.
Доп. информация: „Экран“
Оператор: А.Пекарь
Монтаж:Н.Бутакова
Раздача группы:
Качество: VHSRip
Формат: AVI
Видео: 720x536 (1.34:1), 25 fps, XviD build 50 ~1999 kbps avg, 0.21 bit/pixel
Аудио: 48 kHz, MPEG Layer 3, 1 ch, ~96.00 kbps avg
Субтитры: нет

Подробные технические данные

Format : AVIFormat/Info : Audio Video InterleaveFile size : 71.8 MiBDuration : 4mn 46sOverall bit rate : 2 105 KbpsWriting application : VirtualDubMod 1.5.10.3 | www.virtualdub-fr.org || (build 2550/release)Writing library : VirtualDubMod build 2550/release
VideoID : 0Format : MPEG-4 VisualFormat profile : Advanced Simple@L5Format settings, BVOP : 2Format settings, QPel : NoFormat settings, GMC : No warppointsFormat settings, Matrix : Default (H.263)Codec ID : XVIDCodec ID/Hint : XviDDuration : 4mn 46sBit rate : 1 999 KbpsWidth : 720 pixelsHeight : 536 pixelsDisplay aspect ratio : 4:3Frame rate : 25.000 fpsColor space : YUVChroma subsampling : 4:2:0Bit depth : 8 bitsScan type : ProgressiveCompression mode : LossyBits/(Pixel*Frame) : 0.207Stream size : 68.2 MiB (95%)Writing library : XviD 1.2.1 (UTC 2008-12-04)
AudioID : 1Format : MPEG AudioFormat version : Version 1Format profile : Layer 3Codec ID : 55Codec ID/Hint : MP3Duration : 4mn 46sBit rate mode : ConstantBit rate : 96.0 KbpsChannel(s) : 1 channelSampling rate : 48.0 KHzCompression mode : LossyStream size : 3.27 MiB (5%)Alignment : Aligned on interleavesInterleave, duration : 40 ms (1.00 video frame)Interleave, preload duration : 504 ms

Скриншоты

[Профиль] [ЛС]
Кто просматривает тему:

Форум Тема Автор Размер
Фильмы (HD Rips | 720p, 1080p) Добро пожаловать, или Посторонним вход воспрещён (Элем Климов) [1964, СССР, комедия, BDRip 1080p] TorrentFilm 9.91 GB
Фильмы (HD Rips | 720p, 1080p) Добро пожаловать, или Посторонним вход воспрещён (Элем Климов) [1964, СССР, комедия, семейный, BDRip 720p] TorrentFilm 4.77 GB
Фильмы (HD Rips | 720p, 1080p) Добро пожаловать, или Посторонним вход воспрещен (Элем Климов) [1964, СССР, комедия, семейный, Blu-ray Disc 1080p] TorrentFilm 19.38 GB
Фильмы (DVD 5/9) Добро пожаловать, или Посторонним вход воспрещен (Элем Климов) [1964, СССР, Комедия,Blu ray > DVD9 (Custom)] + Sub Rus,Eng + Original Rus(DTS 5.1;AC3 5.1;AC3 1.0) TorrentFilm 4.93 GB
Фильмы 2015 года Осторожнее с желаниями / Careful What You Wish For (2015) HDRip | L2 достали все 1.46 GB
R.G.TorrentFilm Video Осторожнее с желаниями / Бойся желаний своих / Careful What You Wish For (Элизабет Розенбаум / Elizabeth Rosenbaum) [2015, США, Триллер, детектив, DVDRip] VO (Виктор Береговых) Один 777 746 MB
Отечественные мультфильмы Осторожно - нервы! (Евгений Сивоконь) [1975, мультфильм для взрослых, TVRip] TorrentFilm 107 MB
Отечественные мультфильмы Осторожно! Караси! (Виктор Довнар) [1987, Кукольный мультфильм, WEBRip] painkiller 45 MB
Показать сообщения:    

Текущее время: Сегодня 18:00

Часовой пояс: GMT



Вы не можете начинать темы
Вы не можете отвечать на сообщения
Вы не можете редактировать свои сообщения
Вы не можете удалять свои сообщения
Вы не можете голосовать в опросах
Вы не можете прикреплять файлы к сообщениям
Вы не можете скачивать файлы