Осторожно - нервы! (Евгений Сивоконь) [1975, мультфильм для взрослых, TVRip]

 
Автор Сообщение

TorrentFilm ®

Пол:

Стаж: 2 года

Сообщений: 7741



Награды: Нет

Торрент-статистика

Создавать темы 27-Сен-2015 00:08

[Цитировать]

Осторожно - нервы!
Страна: СССР (Украинская республика)
Жанр: мультфильм для взрослых
Продолжительность: 00:06:52
Год выпуска: 1975
Перевод: Не требуется
Русские субтитры: нет
Режиссёр: Евгений Сивоконь
Описание: Жизнь человека и его нервной системы, которая в этом мультфильме изображена в виде маленького человечка, живущего внутри своего хозяина и остро реагирующего на все воздействия извне.
Качество: TVRip
Формат: AVI
Видео: 2063 kbps, 528х400 (4:3), 25.000 fps, MPEG-4 Visual (XviD)
Аудио: 96 kbps, 48.0 kHz, 1 channel, MPEG Audio (MP3)
Субтитры: отсутствуют

Подробные технические данные

GeneralComplete name : Осторожно - нервы! (1975).aviFormat : AVIFormat/Info : Audio Video InterleaveFile size : 107 MiBDuration : 6mn 52sOverall bit rate : 2 172 KbpsWriting application : Lavf55.33.100
VideoID : 0Format : MPEG-4 VisualFormat profile : Advanced Simple@L5Format settings, BVOP : NoFormat settings, QPel : NoFormat settings, GMC : No warppointsFormat settings, Matrix : Default (H.263)Codec ID : XVIDCodec ID/Hint : XviDDuration : 6mn 52sBit rate : 2 063 KbpsWidth : 528 pixelsHeight : 400 pixelsDisplay aspect ratio : 4:3Frame rate : 25.000 fpsColor space : YUVChroma subsampling : 4:2:0Bit depth : 8 bitsScan type : ProgressiveCompression mode : LossyBits/(Pixel*Frame) : 0.391Stream size : 102 MiB (95%)Writing library : XviD 64
AudioID : 1Format : MPEG AudioFormat version : Version 1Format profile : Layer 3Codec ID : 55Codec ID/Hint : MP3Duration : 6mn 52sBit rate mode : ConstantBit rate : 96.0 KbpsChannel(s) : 1 channelSampling rate : 48.0 KHzCompression mode : LossyStream size : 4.72 MiB (4%)Alignment : Aligned on interleavesInterleave, duration : 24 ms (0.60 video frame)Interleave, preload duration : 24 msWriting library : LAME3.99.5ЄЄЄЄЄЄЄЄЄЄ

Скриншоты

[Профиль] [ЛС]
Кто просматривает тему:

Форум Тема Автор Размер
Фильмы (HD Rips | 720p, 1080p) Добро пожаловать, или Посторонним вход воспрещён (Элем Климов) [1964, СССР, комедия, BDRip 1080p] TorrentFilm 9.91 GB
Фильмы (HD Rips | 720p, 1080p) Добро пожаловать, или Посторонним вход воспрещён (Элем Климов) [1964, СССР, комедия, семейный, BDRip 720p] TorrentFilm 4.77 GB
Фильмы (HD Rips | 720p, 1080p) Добро пожаловать, или Посторонним вход воспрещен (Элем Климов) [1964, СССР, комедия, семейный, Blu-ray Disc 1080p] TorrentFilm 19.38 GB
Фильмы (DVD 5/9) Добро пожаловать, или Посторонним вход воспрещен (Элем Климов) [1964, СССР, Комедия,Blu ray > DVD9 (Custom)] + Sub Rus,Eng + Original Rus(DTS 5.1;AC3 5.1;AC3 1.0) TorrentFilm 4.93 GB
Фильмы 2015 года Осторожнее с желаниями / Careful What You Wish For (2015) HDRip | L2 достали все 1.46 GB
R.G.TorrentFilm Video Осторожнее с желаниями / Бойся желаний своих / Careful What You Wish For (Элизабет Розенбаум / Elizabeth Rosenbaum) [2015, США, Триллер, детектив, DVDRip] VO (Виктор Береговых) Один 777 746 MB
Отечественные мультфильмы Осторожно! Караси! (Виктор Довнар) [1987, Кукольный мультфильм, WEBRip] painkiller 45 MB
Криминальная документалистика Осторожно, мошенники! Липовая диагностика (2014.12.09) SATRip sergej644 287 MB
Показать сообщения:    

Текущее время: Сегодня 04:21

Часовой пояс: GMT



Вы не можете начинать темы
Вы не можете отвечать на сообщения
Вы не можете редактировать свои сообщения
Вы не можете удалять свои сообщения
Вы не можете голосовать в опросах
Вы не можете прикреплять файлы к сообщениям
Вы не можете скачивать файлы