Осторожно, мошенники! Липовая диагностика (2014.12.09) SATRip

 
Автор Сообщение

sergej644 ®

Пол:

Стаж: 4 года 11 месяцев

Сообщений: 6043

Откуда: Soviet Union



Награды: Нет

Торрент-статистика

Создавать темы 09-Дек-2014 20:55

[Цитировать]

- Осторожно, мошенники! Липовая диагностика (2014.12.09) SATRip - Режиссер / Телекомпания: ТВЦ
Русское название: Осторожно, мошенники!
Год выпуска: 2014
Жанр: Документальный
Описание:
Наверное, каждый хоть раз становился жертвой мошенников: будь то игра в "моментальные" лотереи, приобретение ненужных, а иногда и вредных пищевых добавок или общение с вымогателями денег по телефону, для пополнения мобильного счёта бедного чада, оставшегося без связи. В помощь нежелающим наступать на старые грабли зрителям на канале "ТВ Центр" в стартует новая программа "Осторожно, мошенники!", которая еженедельно станет рассказывать о самых распространенных способах отъема денег у граждан и способах борьбы с ними.
В выпуске:
Был бы пациент, а диагноз найдётся! Под таким лозунгом работают десятки частных клиник. Главная их задача – напугать жертву плохими анализами и получить доступ к её кошельку. Как мошенники используют медицинскую диагностику для бесстыдного обогащения? Об этом в очередном выпуске программы "Осторожно, мошенники!".
Ведущий: Вика Коломыцына, Игорь Швыткин и Олег Лобаков
Продолжительность: ~ 00:24:31
Видеокодек: XVID
Битрейт видео: ~1500 kb/s
Размер кадра: 704 x 400
Качество видео: SATRip
Аудиокодек: MP3, 2ch.
Битрейт аудио: 128 kb/s

MediaInfo

Формат : AVI
Формат/Информация : Audio Video Interleave
Размер файла : 287 Мбайт
Продолжительность : 24 м.
Общий поток : 1635 Кбит/сек
Программа кодирования : VirtualDubMod 1.5.10.3 | www.virtualdub-fr.org || (build 2550/release)
Библиотека кодирования : VirtualDubMod build 2550/release
Видео
Идентификатор : 0
Формат : MPEG-4 Visual
Профиль формата : Advanced Simple@L5
Параметр BVOP формата : 2
Параметр QPel формата : Нет
Параметр GMC формата : Без точки перехода
Параметр матрицы формата : Default (MPEG)
Идентификатор кодека : XVID
Идентификатор кодека/Подсказка : XviD
Продолжительность : 24 м.
Битрейт : 1497 Кбит/сек
Ширина : 704 пикселя
Высота : 400 пикселей
Соотношение сторон : 16:9
Частота кадров : 25,000 кадров/сек
Цветовое пространство : YUV
Субдискретизация насыщенности : 4:2:0
Битовая глубина : 8 бит
Тип развёртки : Прогрессивная
Метод сжатия : С потерями
Бит/(Пиксели*Кадры) : 0.213
Размер потока : 263 Мбайт (92%)
Библиотека кодирования : XviD 1.2.1 (UTC 2008-12-04)
Аудио
Идентификатор : 1
Формат : MPEG Audio
Версия формата : Version 1
Профиль формата : Layer 3
Идентификатор кодека : 55
Идентификатор кодека/Подсказка : MP3
Продолжительность : 24 м.
Вид битрейта : Постоянный
Битрейт : 128 Кбит/сек
Каналы : 2 канала
Частота : 48,0 КГц
Метод сжатия : С потерями
Размер потока : 22,4 Мбайт (8%)
Выравнивание : Соединение по промежуткам
Продолжительность промежутка : 40 мс. (1,00 видеокадр)
Время предзагрузки промежутка : 504 мс.
Библиотека кодирования : LAME3.99r
Настройки программы : -m s -V 4 -q 2 -lowpass 17 -b 128
Скриншоты: Время раздачи: 24/7. До первых 5 скачавших.
Rip by Печаль
[Профиль] [ЛС]
Кто просматривает тему:

Форум Тема Автор Размер
Фильмы (HD Rips | 720p, 1080p) Добро пожаловать, или Посторонним вход воспрещён (Элем Климов) [1964, СССР, комедия, BDRip 1080p] TorrentFilm 9.91 GB
Фильмы (HD Rips | 720p, 1080p) Добро пожаловать, или Посторонним вход воспрещён (Элем Климов) [1964, СССР, комедия, семейный, BDRip 720p] TorrentFilm 4.77 GB
Фильмы (HD Rips | 720p, 1080p) Добро пожаловать, или Посторонним вход воспрещен (Элем Климов) [1964, СССР, комедия, семейный, Blu-ray Disc 1080p] TorrentFilm 19.38 GB
Фильмы (DVD 5/9) Добро пожаловать, или Посторонним вход воспрещен (Элем Климов) [1964, СССР, Комедия,Blu ray > DVD9 (Custom)] + Sub Rus,Eng + Original Rus(DTS 5.1;AC3 5.1;AC3 1.0) TorrentFilm 4.93 GB
Фильмы 2015 года Осторожнее с желаниями / Careful What You Wish For (2015) HDRip | L2 достали все 1.46 GB
R.G.TorrentFilm Video Осторожнее с желаниями / Бойся желаний своих / Careful What You Wish For (Элизабет Розенбаум / Elizabeth Rosenbaum) [2015, США, Триллер, детектив, DVDRip] VO (Виктор Береговых) Один 777 746 MB
Отечественные мультфильмы Осторожно - нервы! (Евгений Сивоконь) [1975, мультфильм для взрослых, TVRip] TorrentFilm 107 MB
Отечественные мультфильмы Осторожно! Караси! (Виктор Довнар) [1987, Кукольный мультфильм, WEBRip] painkiller 45 MB
Показать сообщения:    

Текущее время: Сегодня 10:50

Часовой пояс: GMT



Вы не можете начинать темы
Вы не можете отвечать на сообщения
Вы не можете редактировать свои сообщения
Вы не можете удалять свои сообщения
Вы не можете голосовать в опросах
Вы не можете прикреплять файлы к сообщениям
Вы не можете скачивать файлы