Осторожно! Караси! (Виктор Довнар) [1987, Кукольный мультфильм, WEBRip]

 
Автор Сообщение

painkiller ®

Стаж: 2 года 3 месяца

Сообщений: 582



Награды: Нет

Торрент-статистика

Создавать темы 27-Авг-2014 15:28

[Цитировать]

Осторожно! Караси!
Страна: СССР
Жанр: Кукольный мультфильм
Продолжительность: 00:09:55
Год выпуска: 1987
Русские субтитры: нет
Режиссёр: Виктор Довнар
Описание: Мелиоратор не решился переделывать красивый уголок природы
Доп. информация: ГП «Беларусьфильм»
Сценарист: Н.Лось
Композитор:С.Кортес
Оператор: А.Бетев
РИП by ItarTass
Качество: WEBRip
Формат: AVI
Видео: 640x480 (1.33:1), 25 fps, XviD build 64 ~496 kbps avg, 0.06 bit/pixel
Аудио: 44.100 kHz, MPEG Layer 3, 2 ch, ~128.00 kbps avg
Субтитры: нет

Подробные технические данные

Формат : AVIФормат/Информация : Audio Video InterleaveРазмер файла : 45,0 МбайтПродолжительность : 9 м. 55 с.Общий поток : 634 Кбит/секПрограмма кодирования : VirtualDubMod 1.5.10.3 | www.virtualdub-fr.org || (build 2550/release)Библиотека кодирования : VirtualDubMod build 2550/release
ВидеоИдентификатор : 0Формат : MPEG-4 VisualПрофиль формата : Advanced Simple@L5Параметр BVOP формата : 2Параметр QPel формата : НетПараметр GMC формата : Без точки переходаПараметр матрицы формата : Default (H.263)Идентификатор кодека : XVIDИдентификатор кодека/Подсказка : XviDПродолжительность : 9 м. 55 с.Битрейт : 496 Кбит/секШирина : 640 пикс.Высота : 480 пикс.Соотношение сторон : 4:3Частота кадров : 25,000 кадр/секЦветовое пространство : YUVПодвыборка цветности : 4:2:0Битовая глубина : 8 битТип развёртки : ПрогрессивнаяМетод сжатия : С потерямиБит/(Пиксели*Кадры) : 0.065Размер потока : 35,2 Мбайт (78%)Библиотека кодирования : XviD 64
АудиоИдентификатор : 1Формат : MPEG AudioВерсия формата : Version 1Профиль формата : Layer 3Идентификатор кодека : 55Идентификатор кодека/Подсказка : MP3Продолжительность : 9 м. 55 с.Вид битрейта : ПостоянныйБитрейт : 128 Кбит/секКанал(ы) : 2 канала(ов)Частота : 44,1 КГцМетод сжатия : С потерямиРазмер потока : 9,08 Мбайт (20%)Выравнивание : Разделение по промежуткамПродолжительность промежутка : 40 мс. (1,00 видеокадр)Время предзагрузки промежутка : 500 msБиблиотека кодирования : LAME3.99.1

Скриншоты

[Профиль] [ЛС]
Кто просматривает тему:

Форум Тема Автор Размер
Фильмы (HD Rips | 720p, 1080p) Добро пожаловать, или Посторонним вход воспрещён (Элем Климов) [1964, СССР, комедия, BDRip 1080p] TorrentFilm 9.91 GB
Фильмы (HD Rips | 720p, 1080p) Добро пожаловать, или Посторонним вход воспрещён (Элем Климов) [1964, СССР, комедия, семейный, BDRip 720p] TorrentFilm 4.77 GB
Фильмы (HD Rips | 720p, 1080p) Добро пожаловать, или Посторонним вход воспрещен (Элем Климов) [1964, СССР, комедия, семейный, Blu-ray Disc 1080p] TorrentFilm 19.38 GB
Фильмы (DVD 5/9) Добро пожаловать, или Посторонним вход воспрещен (Элем Климов) [1964, СССР, Комедия,Blu ray > DVD9 (Custom)] + Sub Rus,Eng + Original Rus(DTS 5.1;AC3 5.1;AC3 1.0) TorrentFilm 4.93 GB
Фильмы 2015 года Осторожнее с желаниями / Careful What You Wish For (2015) HDRip | L2 достали все 1.46 GB
R.G.TorrentFilm Video Осторожнее с желаниями / Бойся желаний своих / Careful What You Wish For (Элизабет Розенбаум / Elizabeth Rosenbaum) [2015, США, Триллер, детектив, DVDRip] VO (Виктор Береговых) Один 777 746 MB
Отечественные мультфильмы Осторожно - нервы! (Евгений Сивоконь) [1975, мультфильм для взрослых, TVRip] TorrentFilm 107 MB
Криминальная документалистика Осторожно, мошенники! Липовая диагностика (2014.12.09) SATRip sergej644 287 MB
Показать сообщения:    

Текущее время: Сегодня 07:02

Часовой пояс: GMT



Вы не можете начинать темы
Вы не можете отвечать на сообщения
Вы не можете редактировать свои сообщения
Вы не можете удалять свои сообщения
Вы не можете голосовать в опросах
Вы не можете прикреплять файлы к сообщениям
Вы не можете скачивать файлы