Остин Пауэрс: Шпион, который меня соблазнил / Austin Powers: The Spy Who Shagged Me (1999) BDRip 1080p | D

 
Автор Сообщение

sergej644 ®

Пол:

Стаж: 4 года 11 месяцев

Сообщений: 6046

Откуда: Soviet Union



Награды: Нет

Торрент-статистика

Создавать темы 14-Ноя-2014 08:57

[Цитировать]

Информация о фильме
Название: Остин Пауэрс: Шпион, который меня соблазнил
Оригинальное название: Austin Powers: The Spy Who Shagged Me
Год выхода: 1999
Жанр: Боевик, комедия, приключения, криминал, пародия
Режиссер: Джей Роуч
В ролях: Майк Майерс, Хэзер Грэм, Майкл Йорк, Роберт Вагнер, Роб Лоу, Сет Грин, Мелинда Стерлинг, Верн Тройер, Элизабет Херли, Гия Кариде
О фильме:
Мечтающий о мировом господстве Доктор Зло отправляется назад в свингующие 60-е, чтобы похитить «моджо» плейбоя и суперагента Остина Пауэрса - талисман, гарантирующий ему успех у женщин. Смертельная схватка неизбежна. Остин бросается в погоню за своим врагом, чтобы вместе с соблазнительной помощницей Фелицией Трахвелл спасти мир, вернуть свою гиперсексуальность и… успеть домой как раз к чаю…

Страна: США
Студия: New Line Cinema, Team Todd, Moving Pictures, Eric's Boy
Продолжительность: 01:35:02
Перевод: Дублированный, оригинал
Файл
Кодек: h.264
Качество: BDRip 1080p
Видео: 1920x816, 10700 Kbps, 23.976 fps, Bits/(Pixel*Frame) 0.285
Звук #1: AC3, 448 Kbps, 6 channels (Дубляж)
Звук #2: AC3, 448 Kbps, 6 channels (Оригинал)
Субтитры: Русские, английские

x264

x264 [info]: frame I:1159  Avg QP:20.72  size:187167
x264 [info]: frame P:31220 Avg QP:22.64  size: 84585
x264 [info]: frame B:104350 Avg QP:24.77  size: 45602

MI

Format                                   : Matroska
Format version                           : Version 2
File size                                : 7.69 GiB
Duration                                 : 1h 35mn
Overall bit rate                         : 11.6 Mbps
Movie name                               : Austin Powers: The Spy Who Shagged Me
Encoded date                             : UTC 2014-11-14 06:47:17
Writing application                      : mkvmerge v5.8.0 ('No Sleep / Pillow') built on Sep  2 2012 15:37:04
Writing library                          : libebml v1.2.3 + libmatroska v1.3.0
Video
ID                                       : 1
Format                                   : AVC
Format/Info                              : Advanced Video Codec
Format profile                           : High@L4.1
Format settings, CABAC                   : Yes
Format settings, ReFrames                : 5 frames
Codec ID                                 : V_MPEG4/ISO/AVC
Duration                                 : 1h 35mn
Bit rate                                 : 10.7 Mbps
Width                                    : 1 920 pixels
Height                                   : 816 pixels
Display aspect ratio                     : 2.35:1
Frame rate mode                          : Constant
Frame rate                               : 23.976 fps
Color space                              : YUV
Chroma subsampling                       : 4:2:0
Bit depth                                : 8 bits
Scan type                                : Progressive
Bits/(Pixel*Frame)                       : 0.285
Stream size                              : 6.94 GiB (90%)
Writing library                          : x264 core 130 r2273 b3065e6
Encoding settings                        : cabac=1 / ref=5 / deblock=1:-2:-2 / analyse=0x3:0x133 / me=umh / subme=10 / psy=1 / psy_rd=1.00:0.20 / mixed_ref=1 / me_range=32 / chroma_me=1 / trellis=2 / 8x8dct=1 / cqm=0 / deadzone=21,11 / fast_pskip=0 / chroma_qp_offset=-3 / threads=6 / lookahead_threads=1 / sliced_threads=0 / nr=0 / decimate=0 / interlaced=0 / bluray_compat=0 / constrained_intra=0 / bframes=8 / b_pyramid=2 / b_adapt=2 / b_bias=0 / direct=3 / weightb=1 / open_gop=0 / weightp=2 / keyint=240 / keyint_min=23 / scenecut=40 / intra_refresh=0 / rc=2pass / mbtree=0 / bitrate=10688 / ratetol=1.0 / qcomp=0.60 / qpmin=0 / qpmax=69 / qpstep=4 / cplxblur=20.0 / qblur=0.5 / ip_ratio=1.40 / pb_ratio=1.30 / aq=1:1.00
Language                                 : English
Default                                  : Yes
Forced                                   : No
Audio #1
ID                                       : 2
Format                                   : AC-3
Format/Info                              : Audio Coding 3
Mode extension                           : CM (complete main)
Format settings, Endianness              : Big
Codec ID                                 : A_AC3
Duration                                 : 1h 35mn
Bit rate mode                            : Constant
Bit rate                                 : 448 Kbps
Channel(s)                               : 6 channels
Channel positions                        : Front: L C R, Side: L R, LFE
Sampling rate                            : 48.0 KHz
Bit depth                                : 16 bits
Compression mode                         : Lossy
Stream size                              : 305 MiB (4%)
Title                                    : Rus
Language                                 : Russian
Default                                  : Yes
Forced                                   : No
Audio #2
ID                                       : 3
Format                                   : AC-3
Format/Info                              : Audio Coding 3
Mode extension                           : CM (complete main)
Format settings, Endianness              : Big
Codec ID                                 : A_AC3
Duration                                 : 1h 35mn
Bit rate mode                            : Constant
Bit rate                                 : 448 Kbps
Channel(s)                               : 6 channels
Channel positions                        : Front: L C R, Side: L R, LFE
Sampling rate                            : 48.0 KHz
Bit depth                                : 16 bits
Compression mode                         : Lossy
Stream size                              : 305 MiB (4%)
Title                                    : Eng
Language                                 : English
Default                                  : No
Forced                                   : No
Text #1
ID                                       : 4
Format                                   : UTF-8
Codec ID                                 : S_TEXT/UTF8
Codec ID/Info                            : UTF-8 Plain Text
Title                                    : Rus
Language                                 : Russian
Default                                  : No
Forced                                   : No
Text #2
ID                                       : 5
Format                                   : UTF-8
Codec ID                                 : S_TEXT/UTF8
Codec ID/Info                            : UTF-8 Plain Text
Title                                    : Eng
Language                                 : English
Default                                  : No
Forced                                   : No

Скриншоты

[Профиль] [ЛС]
Показать сообщения:    

Текущее время: Сегодня 14:09

Часовой пояс: GMT



Вы не можете начинать темы
Вы не можете отвечать на сообщения
Вы не можете редактировать свои сообщения
Вы не можете удалять свои сообщения
Вы не можете голосовать в опросах
Вы не можете прикреплять файлы к сообщениям
Вы не можете скачивать файлы